Сегодня идет свободное скачивание без начисления Download

Симпсоны / The Simpsons / Сезон: 19 / Серии: 1 (20) (Мэтт Гроунинг / Matt Groening) [2007, Приключения, комедия, сатира, HDTVRip 720p] 3xMVO (2x2, ДубльPR, Nosferatu13fd & CinemaSET) + Ukr (1+1) + Original + Subs (Rus, Eng)

Ответить на тему
 
Автор
Сообщение

Omen ®

Стаж: 4 года 10 месяцев

Сообщений: 190643

Торрент-статистика

Пост 28-Окт-2015 03:58

[Цитировать]

Симпсоны / The Simpsons -Год выпуска: 2007
Страна: США
Студия: Twentieth Century Fox Film Corporation
Жанр: Приключения, комедия, сатира
Продолжительность: ~22 минуты (серия)
Перевод:
  • Профессиональный (двухголосый закадровый) студия Hedgehog Riders & Propeller Sound по заказу ,
  • Любительский (двухголосый закадровый) ДубльPR
  • Любительский (двухголосый закадровый) Nosferatu13fd & CinemaSET
  • Профессиональный (дублированный) 1+1 |Украинский|
-Режиссёр: Мэтт Гроунинг / Matt Groening-Роли озвучивали:
  • Оригинал: Дэн Кастелланета, Джули Кавнер, Нэнси Картрайт, Ярдли Смит, Гарри Ширер, Хэнк Азария, Памела Хейден, Тресс МакНилл, Карл Видерготт, Мэгги Росвэлл и др.
  • 2x2: Ирина Савина, Борис Быстров.
  • 1+1: Евгений Малуха, Юрий Коваленко, Анна Левченко, Ирина Дорошенко.
-Описание: Симпсоны живут в вымышленном городе Спрингфилд, со своим обществом и историей. Гомер - отец семейства, который дает плохие советы и работает инспектором безопасности на атомной электростанции; Мардж - любящая мать и жена, старается сохранить спокойствие в семье; Барт - 10 летний хулиган; Лиза - философский 8-летний ребенок; и Мэгги - младенец, который общается посредством соски.-

Доп. информация

О 1 серии 19 сезона: Эта серии начинается с того момента, где закончился полнометражный фильм "Симпсоны в кино".
Об озвучке 2x2: После 18 сезона права на озвучивание и показ мультсериала каналом РЕН-ТВ закончились. Права на 19 и последующие сезоны были приобретены каналом 2x2. 17 декабря 2009 года в рамках одного из «Марафонов Симпсонов», посвященных их 20-летию, были показаны первые 6 серий премьерного 19 сезона. Новый сезон вновь озвучивали Борис Быстров и Ирина Савина.
О качестве релиза: 19 сезон теперь в формате HD. Размер экрана 16:9. Это не так, как на Bluray-изданиях 13-17 сезонов. 18-19, 21 и последующие сезоны не будут выпускаться на Bluray и DVD по техническим причинам.
-РЕЛИЗ ОТ: V.SERIJ2013-

Спасибо

  • Den.S-92, utas - за запись звука с телеканала 2х2;
  • gruzovik1983 - за аудиодорожку ДубльPR;
  • Zombie Lee - за аудиодорожку Nosferatu13fd & CinemaSET и субтитры;
  • 4erkov, abodnya, karvai0 - за запись звука с телеканала 1+1;
  • v.serij2013 (т.е., мне) - за сведение.
-Качество: HDTVRip 720p |CtrlHD|
Формат: MKV
Видео кодек: H.264
Аудио кодек: AC3
Видео: H.264, 1280x720 (16:9), 23.976 fps, ~2159 kbps, 0.098 bit/pixel
Аудио:
  • русская |2x2|: AC3, 48 kHz, 2 ch, 192 kbps
    русская |ДубльPR|: AC3, 48 kHz, 2 ch, 192 kbps
    русская |Nosferatu13fd & CinemaSET|: AC3, 48 kHz, 2 ch, 192 kbps
    украинская |1+1|: AC3, 48 kHz, 2 ch, 192 kbps
  • английская |Оригинал|: AC3, 48 kHz, 6 ch, 384 kbps
Субтитры: русские, английские
-Все раздачи мультсериала \ 16 сезон (BDRip 720p) \ 17 сезон (BDRip 720p) \ 26 сезон (WEB-DL 1080p)- -

Список серий

01. He Loves to Fly and He D'ohs

Media Info

Код:
General
Unique ID                      : 174031812791942139369634615083296212410 (0x82ED4ED60558894A961C6322BEFDC5BA)
Complete name                  : E:\Video\HD\Animated Series (HD)\The Simpsons Season 19 (HDTVRip 720p)\01. He Loves to Fly and He D'ohs.mkv
Format                         : Matroska
Format version                 : Version 4 / Version 2
File size                      : 505 MiB
Duration                       : 20mn 53s
Overall bit rate               : 3 378 Kbps
Movie name                     : The Simpsons Season 19 (HDTVRip | 720p | v.serij2013)
Encoded date                   : UTC 2015-10-26 21:06:55
Writing application            : mkvmerge v8.2.0 ('World of Adventure') 32bit
Writing library                : libebml v1.3.1 + libmatroska v1.4.2
DURATION                       : 00:19:12.401000000
NUMBER_OF_FRAMES               : 358
NUMBER_OF_BYTES                : 11284
_STATISTICS_WRITING_APP        : mkvmerge v8.2.0 ('World of Adventure') 32bit
_STATISTICS_WRITING_DATE_UTC   : 2015-10-26 21:06:55
_STATISTICS_TAGS               : BPS DURATION NUMBER_OF_FRAMES NUMBER_OF_BYTES
Video
ID                             : 1
Format                         : AVC
Format/Info                    : Advanced Video Codec
Format profile                 : High@L4.1
Format settings, CABAC         : Yes
Format settings, ReFrames      : 5 frames
Codec ID                       : V_MPEG4/ISO/AVC
Duration                       : 20mn 53s
Bit rate                       : 2 159 Kbps
Width                          : 1 280 pixels
Height                         : 720 pixels
Display aspect ratio           : 16:9
Frame rate mode                : Constant
Frame rate                     : 23.976 fps
Color space                    : YUV
Chroma subsampling             : 4:2:0
Bit depth                      : 8 bits
Scan type                      : Progressive
Bits/(Pixel*Frame)             : 0.098
Stream size                    : 323 MiB (64%)
Writing library                : x264 core 146 r2538 121396c
Encoding settings              : cabac=1 / ref=5 / deblock=1:-3:-3 / analyse=0x3:0x133 / me=tesa / subme=10 / psy=0 / mixed_ref=1 / me_range=24 / chroma_me=1 / trellis=2 / 8x8dct=1 / cqm=0 / deadzone=21,11 / fast_pskip=0 / chroma_qp_offset=0 / threads=12 / lookahead_threads=2 / sliced_threads=0 / nr=0 / decimate=1 / interlaced=0 / bluray_compat=0 / constrained_intra=0 / bframes=9 / b_pyramid=2 / b_adapt=2 / b_bias=0 / direct=2 / weightb=1 / open_gop=0 / weightp=2 / keyint=240 / keyint_min=23 / scenecut=40 / intra_refresh=0 / rc=crf / mbtree=0 / crf=17.5 / qcomp=0.60 / qpmin=0 / qpmax=69 / qpstep=4 / ip_ratio=1.40 / pb_ratio=1.30 / aq=2:0.60
Language                       : English
Default                        : Yes
Forced                         : No
DURATION                       : 00:20:53.336000000
NUMBER_OF_FRAMES               : 30050
NUMBER_OF_BYTES                : 347736577
_STATISTICS_WRITING_APP        : mkvmerge v8.2.0 ('World of Adventure') 32bit
_STATISTICS_WRITING_DATE_UTC   : 2015-10-26 21:06:55
_STATISTICS_TAGS               : BPS DURATION NUMBER_OF_FRAMES NUMBER_OF_BYTES
Audio #1
ID                             : 2
Format                         : AC-3
Format/Info                    : Audio Coding 3
Mode extension                 : CM (complete main)
Format settings, Endianness    : Big
Codec ID                       : A_AC3
Duration                       : 20mn 53s
Bit rate mode                  : Constant
Bit rate                       : 192 Kbps
Channel(s)                     : 2 channels
Channel positions              : Front: L R
Sampling rate                  : 48.0 KHz
Bit depth                      : 16 bits
Compression mode               : Lossy
Stream size                    : 28.7 MiB (6%)
Title                          : DVO (2x2)
Language                       : Russian
Default                        : Yes
Forced                         : No
Audio #2
ID                             : 3
Format                         : AC-3
Format/Info                    : Audio Coding 3
Mode extension                 : CM (complete main)
Format settings, Endianness    : Big
Codec ID                       : A_AC3
Duration                       : 20mn 53s
Bit rate mode                  : Constant
Bit rate                       : 192 Kbps
Channel(s)                     : 2 channels
Channel positions              : Front: L R
Sampling rate                  : 48.0 KHz
Bit depth                      : 16 bits
Compression mode               : Lossy
Stream size                    : 28.7 MiB (6%)
Title                          : DVO (ДубльPR)
Language                       : Russian
Default                        : No
Forced                         : No
Audio #3
ID                             : 4
Format                         : AC-3
Format/Info                    : Audio Coding 3
Mode extension                 : CM (complete main)
Format settings, Endianness    : Big
Codec ID                       : A_AC3
Duration                       : 20mn 53s
Bit rate mode                  : Constant
Bit rate                       : 192 Kbps
Channel(s)                     : 2 channels
Channel positions              : Front: L R
Sampling rate                  : 48.0 KHz
Bit depth                      : 16 bits
Compression mode               : Lossy
Stream size                    : 28.7 MiB (6%)
Title                          : DVO (Nosferatu13fd & CinemaSET)
Language                       : Russian
Default                        : No
Forced                         : No
Audio #4
ID                             : 5
Format                         : AC-3
Format/Info                    : Audio Coding 3
Mode extension                 : CM (complete main)
Format settings, Endianness    : Big
Codec ID                       : A_AC3
Duration                       : 20mn 53s
Bit rate mode                  : Constant
Bit rate                       : 192 Kbps
Channel(s)                     : 2 channels
Channel positions              : Front: L R
Sampling rate                  : 48.0 KHz
Bit depth                      : 16 bits
Compression mode               : Lossy
Stream size                    : 28.7 MiB (6%)
Title                          : DUB (1+1)
Language                       : Ukrainian
Default                        : No
Forced                         : No
Audio #5
ID                             : 6
Format                         : AC-3
Format/Info                    : Audio Coding 3
Mode extension                 : CM (complete main)
Format settings, Endianness    : Big
Codec ID                       : A_AC3
Duration                       : 20mn 53s
Bit rate mode                  : Constant
Bit rate                       : 384 Kbps
Channel(s)                     : 6 channels
Channel positions              : Front: L C R, Side: L R, LFE
Sampling rate                  : 48.0 KHz
Bit depth                      : 16 bits
Compression mode               : Lossy
Delay relative to video        : 14ms
Stream size                    : 57.4 MiB (11%)
Title                          : Original
Language                       : English
Default                        : No
Forced                         : No
Text #1
ID                             : 7
Format                         : UTF-8
Codec ID                       : S_TEXT/UTF8
Codec ID/Info                  : UTF-8 Plain Text
Language                       : Russian
Default                        : No
Forced                         : No
Text #2
ID                             : 8
Format                         : UTF-8
Codec ID                       : S_TEXT/UTF8
Codec ID/Info                  : UTF-8 Plain Text
Language                       : English
Default                        : No
Forced                         : No
[/spoiler]
-
Вне форума [Профиль] [ЛС]
Показать сообщения:    
Ответить на тему

Текущее время: Сегодня 12:44

Часовой пояс: GMT + 3



Вы не можете начинать темы
Вы не можете отвечать на сообщения
Вы не можете редактировать свои сообщения
Вы не можете удалять свои сообщения
Вы не можете голосовать в опросах
Вы не можете прикреплять файлы к сообщениям
Вы не можете скачивать файлы