Сегодня идет свободное скачивание без начисления Download

Медведи - соседи - Boonie Bears. Серии 1-104 из 104 (2010) SATRip

Ответить на тему
 
Автор
Сообщение

Omen ®

Стаж: 4 года 10 месяцев

Сообщений: 190643

Торрент-статистика

Пост 18-Июн-2012 22:42

[Цитировать]

Медведи - соседи
Boonie Bears
- Режиссер / Телекомпания: Карусель
Русское название: Медведи - соседи
Оригинальное название: Boonie Bears
Страна: Китай
Жанр: Мультипликационный сериал
Год выпуска: 2010
Описание:
Комедийный анимационный мультсериал про двух медведей - защитников леса. В прекрасном заповедном лесу мирно уживаются звери и птицы. Но однажды туда приходит злой и хитрый дровосек - он хочет полностью вырубить нетронутый лес! Хорошо, что лесные просторы охраняют храбрые и могучие медведи-соседи - вдвоем они справятся с любой опасностью и проучат подлого дровосека.
В ролях:
Медведи, охотник и другие….
Режиссёр: Леон Динг
Перевод: Профессиональный многоголосый
Продолжительность: Каждая серия ~ 00:13:00
Качество: SATRip
Формат: XviD
Видео: (800 x 455)@(704 x 400), 25.000 fps, ~ 1700kbps
Аудио RUS: AC3, 2ch., 48000Hz, stereo, 192kbps
Субтитры: отсутствуют
- -

Список серий

01. Новый сосед
02. Сердитая птичка
03. Фруктовые бомбы
04. Битва стратегов
05. Робот Вик
06. Панда
07. За колючей проволокой
08. Медведи - нинзя
09. Медовый заговор
10. Печенье для домашних животных
11. Балет на льду
12. Футбольные страсти
13. Никакой охоты
14. Брамбл - водитель
15. Примёршие пальчики
16. Высокое напряженме
17. Припасы кончились
18. Вик геракл
19. Справка для Вика
20. Битва за лес
21. Король леса
22. Зимние забавы
23. Машина Вика
24. Помощники лесоруба
25. Властелин каски
26. Ходячие деревья
27. Угости орешком / Give Me the Nuts!
28. Телевизор Вика / Vick`s TV
29. Битва за пилу / Battle for the Saw
30. Починишь, Вик? / Fix it, Vick
31. Медвежий Гипно-спрей / Hypnotizing Bear Spray
32. Зачем нужен погрузчик / What a Forklift Can Do
33. Сигнализация с пультом дистанционного управления / Remote Controlled Alarm Clock
34. Розыгрыш со знаками / Road Sign Prank
35. Новый телефон Вика / Vick`s New Cell Phone
36. Вкусные помидоры / Tasty Tomatoes
37. Новые правила для лесоруба / New Rules for Logger Vick
38. Зимняя спячка лесоруба / Logger Vick`s Winter
39. День защиты медведей / Love Bear Day
40. Бой на воздушном шаре / Intercept the Hot Air Balloon
41. Выходной Вика / Logger Vick`s Holiday
42. Медвежий ошейник / Bear Collar
43. Игра с огнем / Playing with Fire
44. Медвежье печенье / Bear Cookies
45. Шпионские страсти / GPS Bugs
46. День рождения Вика / Happy Birthday Logger Vick
47. Гольф / Fore!
48. Бинокль / The Binoculars
49. Автограф / The Autograph
50. Медведи чемпионы / Champion Bears
51. Кувшин для медведей / Bear Jars
52. Вечеринка с пиццей / Pizza Party
53. Вик-миллионер / Logger Vick`s Hit the Jackpot
54. Спасите старое дерево / Saving an Ancient Tree
55. Моё секретное оружие / My Secret Weapon
56. Микроволновка Вика / Vick`s Microwave Oven
57. Зеркало, зеркало / Mirror, Mirror
58. Вик повсюду / Logger Vick`s Everywhere
59. Пила-монстр / Monster Chainsaw
60. Брамбл спасает деревья / Bramble Plants a Log
61. Жуткий лес / Creepy Forest
62. Летающий дом / A Flying House
63. Бесконечный выходной / Endless Holidays
64. Бронерованный Вик / Armored Vick
65. Автомат для газировки / Drink Dispensers
66. Новый медведь / A New "Bear" Buddy
67. Уборка / Cleaning Day
68. Герои-пожарные / Firefighting Heroes
69. Ультра классный камуфляж / super Ultra Camouflage Cloth
70. Кун-фу мишки / Kung Fu Bears
71. Драка за чипсы / Fight fir Potato Chips!
72. Медвежья граффити / Bear Graffiti
73. Лабиринт приключений / A Labyrinth Adventure
74. Старый страшный тоннель / A Big Old Spooky Tunnel
75. Вик сошел с ума / Vick`s Lost His Mind
76. Танцор диско / Disco Dancing
77. Свежая краска / Wet Paint!
78. Новый вентилятор Вика / Vick`s New Fan
79. Проделки лесоруба / Logger Vick`s Tricks
80. Если долго нет дождя, будет ливень / When it Rains it Pours
081. Всю ночь на пролёт / Up All Night
082. Няня Вик / Nanny Vick
083. Радостный праздник весны / Happy Spring Festival
084. Модный медведь / Bear in Style
085. Средневековое безумие / Medieval Madness
086. Незабываемый пикник / An Unforgettable Picnic
087. Светофор / Traffic Lights
088. Скатертью дорожка / Good Riddance
089. Рождественская елка / Vick`s Christmas Tree
090. Монетка / Coin Operated
091. Цирк да и только / Circus Act
092. Игрушечный вертолёт / Vick`s RC Chopper
093. Бумеранг / Boomerang Bang
094. И тень содрогнулась / Shadow Shake UP
095. Вик — стрелок / Trick Shootin` Vick
096. Волшебная шляпа / Magic Hat
097. Жребий / Draw Straws
098. Убирайтесь из моего дома! / Get Out of My House!
099. Лучник Вик / Archer Vick
100. Ты то, что ты ешь / You Are What You Eat
101. Охота на роликах / Rollerblading Bear Hunt
102. Джазовый переполох / Jazzy Jamboree
103. Баскетбол / Basketball Blowout
104. Большой теннис / Tennis Trouble

MI

Код:
Формат                           : AVI
Формат/Информация                : Audio Video Interleave
Размер файла                     : 177 Мбайт
Продолжительность                : 12 м.
Общий поток                      : 1901 Кбит/сек
Режиссёр                         : Rip by Thunder
Программа кодирования            : VirtualDubMod 1.5.10.3 | [url=http://www.virtualdub-fr.org]www.virtualdub-fr.org[/url] || (build 2550/release)
Видео
Идентификатор                    : 0
Формат                           : MPEG-4 Visual
Профиль формата                  : Advanced Simple@L5
Параметр BVOP формата            : 2
Параметр QPel формата            : Нет
Параметр GMC формата             : Без точки перехода
Параметр матрицы формата         : Default (MPEG)
Идентификатор кодека             : XVID
Идентификатор кодека/Подсказка   : XviD
Продолжительность                : 12 м.
Битрейт                          : 1700 Кбит/сек
Ширина                           : 704 пикселя
Высота                           : 400 пикселей
Соотношение сторон               : 16:9
Частота кадров                   : 25,000 кадров/сек
Цветовое пространство            : YUV
Субдискретизация насыщенности    : 4:2:0
Битовая глубина                  : 8 бит
Тип развёртки                    : Прогрессивная
Метод сжатия                     : С потерями
Бит/(Пиксели*Кадры)              : 0.241
Размер потока                    : 158 Мбайт (89%)
Библиотека кодирования           : XviD 1.2.1 (UTC 2008-12-04)
Аудио
Идентификатор                    : 1
Формат                           : AC-3
Формат/Информация                : Audio Coding 3
Расширение режима                : CM (complete main)
Идентификатор кодека             : 2000
Продолжительность                : 12 м.
Вид битрейта                     : Постоянный
Битрейт                          : 192 Кбит/сек
Каналы                           : 2 канала
Расположение каналов             : Front: L R
Частота                          : 48,0 КГц
Битовая глубина                  : 16 бит
Метод сжатия                     : С потерями
Размер потока                    : 17,9 Мбайт (10%)
Выравнивание                     : Разделение по промежуткам
Продолжительность промежутка     : 40  мс. (1,00 видеокадр)
Время предзагрузки промежутка    : 500  мс.
-Скриншоты:
         
         
Вне форума [Профиль] [ЛС]
Похожие темы
Форум Тема Автор Торрент Отв. Посл. сообщение
./templates/default/images/folder_dl.gif Зарубежное кино Медведь / The Bear / L\'ours (Жан-Жак Анно / Jean-Jacques Annaud) [1988, Франция, США, драма, приключения, семейный, BDRip 720p] [REMASTERED] VO (Екатеринбург Арт) + Original Fre + Sub (Rus, Ukr, Fre) Omen
2 | 0

1 | 548

3

2015-06-27 17:22
Dracula Последнее
Показать сообщения:    
Ответить на тему

Текущее время: Сегодня 10:57

Часовой пояс: GMT + 3



Вы не можете начинать темы
Вы не можете отвечать на сообщения
Вы не можете редактировать свои сообщения
Вы не можете удалять свои сообщения
Вы не можете голосовать в опросах
Вы не можете прикреплять файлы к сообщениям
Вы не можете скачивать файлы