Сегодня идет свободное скачивание без начисления Download

Гриффины / Family Guy / Сезон: 14 / Серии: 1-3 из ?? (Сет МакФарлейн / Seth MacFarlane) [2015, Комедия абсудра, пародия, чёрный юмор, WEB-DL 720p] Rus Sub

Ответить на тему
 
Автор
Сообщение

Omen ®

Стаж: 4 года 10 месяцев

Сообщений: 190643

Торрент-статистика

Пост 21-Окт-2015 00:00

[Цитировать]

Гриффины / Family Guy
Страна: США
Жанр: Комедия абсудра, пародия, чёрный юмор
Продолжительность: 00:21:35
Год выпуска: 2015
Перевод: Субтитры
Русские субтитры: есть
Режиссёр: Сет МакФарлейн / Seth MacFarlane
Роли озвучивали: Сет МакФарлейн, Алекс Борштейн, Сет Грин, Мила Кунис, Майк Генри, Дэнни Смит, Патрик Варбертон, Джон Винер, Алек Салкин, Ральф Гармен
Описание: Основное действие сериала разворачивается в Куахоге, вымышленном пригороде Провиденса, штат Род-Айленд. Сюжет вращается вокруг семьи Питера Гриффина — неуклюжего синего воротничка, католика с ирландско-американскими корнями и выраженным род-айлендским акцентом. Он женат на Лоис, домохозяйке и учителе музыки с ярко выраженным акцентом Новой Англии из состоятельной светской семьи Пьютершмидт. У Питера и Лоис трое детей: дочь-подросток Мег, которая плохо вписывается в общество своей школы и которую нередко высмеивает или игнорирует собственная семья; сын-подросток Крис, имеющий избыточный вес и во многом похожий по характеру и поступкам на своего отца, и злодей-младенец Стьюи с неоднозначной сексуальной ориентацией и взрослыми манерами. С Гриффинами живёт антропоморфный пёс, Брайан, который пьёт мартини и разговаривает, но сохраняет при этом повадки животного.
Список серий:
14x01. Pilling Them Softly / Нежно отпилюленные.
14x02. Papa Has a Rollin' Son / Папин сын на колёсах.
14x03. Guy, Robot / Он, Робот.
Качество: WEB-DL 720p
Формат: MKV
Видео: 1280x720 (16:9), 23.976 fps, h.264 MPEG4 AVC (part 10), ~2425 Kbps
Аудио: AC3, 48 KHz, 6 ch, ~384 Kbps
Субтитры: Русские, английские.

Подробные технические данные

GeneralUnique ID : 324570657953337654304477208389689590621 (0xF42E08F0A8F5108B916C0994E3C8C35D)Complete name : Family.Guy.S14E01.Pilling.Them.Softly.[720p.WEB-DL.DD5.1.Rus.Eng.Subs].mkvFormat : MatroskaFormat version : Version 4 / Version 2File size : 443 MiBDuration : 21mn 35sOverall bit rate : 2 866 KbpsEncoded date : UTC 2015-10-20 11:12:14Writing application : mkvmerge v8.5.0 ('Vanishing Act') 64bitWriting library : libebml v1.3.1 + libmatroska v1.4.2Attachements : small_cover.jpg / cover.jpg / cover_land.jpg / small_cover_land.jpgDURATION : 00:21:01.558000000NUMBER_OF_FRAMES : 525NUMBER_OF_BYTES : 17430
VideoID : 1Format : AVCFormat/Info : Advanced Video CodecFormat profile : High@L3.1Format settings, CABAC : NoFormat settings, ReFrames : 2 framesCodec ID : V_MPEG4/ISO/AVCDuration : 21mn 35sBit rate : 2 425 KbpsWidth : 1 280 pixelsHeight : 720 pixelsDisplay aspect ratio : 16:9Frame rate mode : ConstantFrame rate : 23.976 fpsColor space : YUVChroma subsampling : 4:2:0Bit depth : 8 bitsScan type : ProgressiveBits/(Pixel*Frame) : 0.110Stream size : 374 MiB (85%)Title : Family Guy S14E01 - Pilling Them Softly [CtrlHD]Language : EnglishDefault : YesForced : NoColor range : LimitedColor primaries : BT.709Transfer characteristics : BT.709Matrix coefficients : BT.709
AudioID : 2Format : AC-3Format/Info : Audio Coding 3Mode extension : CM (complete main)Format settings, Endianness : BigCodec ID : A_AC3Duration : 21mn 35sBit rate mode : ConstantBit rate : 384 KbpsChannel(s) : 6 channelsChannel positions : Front: L C R, Side: L R, LFESampling rate : 48.0 KHzCompression mode : LossyDelay relative to video : 25msStream size : 59.3 MiB (13%)Title : Original AC3 6chLanguage : EnglishDefault : YesForced : No
Text #1ID : 3Format : UTF-8Codec ID : S_TEXT/UTF8Codec ID/Info : UTF-8 Plain TextTitle : Rus (EvilCartman)Language : RussianDefault : YesForced : Yes
Text #2ID : 4Format : UTF-8Codec ID : S_TEXT/UTF8Codec ID/Info : UTF-8 Plain TextTitle : Eng (Original)Language : EnglishDefault : NoForced : No

Скриншоты меню

Скриншоты

Внимание! Раздача ведётся путём добавления новых серий:

1) остановить скачивание,
(2) удалить старый торрент у себя из клиента (старые серии удалять не надо),
(3) скачать новый торрент и запустить его у себя в клиенте вместо старого, при этом указать клиенту путь в старую папку куда и должно происходить скачивание новых серий.
Ваш клиент при этом должен произвести хеширование (проверку) старой папки (если не производит сам - помогите ему сделать это), и будет докачивать только те серии которых у вас ещё нет. Старые серии при этом не удаляются, а продолжают раздаваться!
Eсли вы уже удалили старые серии, то предотвратить повторную закачку старых серий можно, отжав галочку в соответсвующих местах при запуске нового торрента. По возможности, желательно не удалять старые серии как можно дольше чтобы релизёр не столько продолжал раздавать старые серии, а смог сконцентрироваться на новых.
Вне форума [Профиль] [ЛС]
Показать сообщения:    
Ответить на тему

Текущее время: Сегодня 01:26

Часовой пояс: GMT + 3



Вы не можете начинать темы
Вы не можете отвечать на сообщения
Вы не можете редактировать свои сообщения
Вы не можете удалять свои сообщения
Вы не можете голосовать в опросах
Вы не можете прикреплять файлы к сообщениям
Вы не можете скачивать файлы