Сегодня идет свободное скачивание без начисления Download

Гриффины / Family Guy / Сезон: 14 / Серии: 1-2 из 18 (Сет МакФарлейн / Seth MacFarlane) [2015, Мультсериал, комедия, пародия, чёрный юмор, ситком, HDTVRip] MVO (Filiza Studio)

Ответить на тему
 
Автор
Сообщение

Omen ®

Стаж: 4 года 10 месяцев

Сообщений: 190643

Торрент-статистика

Пост 11-Окт-2015 21:00

[Цитировать]

Гриффины / Family Guy
Страна: США
Жанр: Мультсериал, комедия, пародия, чёрный юмор, ситком
Продолжительность: 00:20:57
Год выпуска: 2015
Перевод: Профессиональный (многоголосый закадровый)
Русские субтитры: нет
Режиссёр: Сет МакФарлейн / Seth MacFarlane
Роли озвучивали: Сет МакФарлейн, Алекс Борштейн, Сет Грин, Мила Кунис, Майк Генри, Дэнни Смит, Патрик Варбертон, Джон Винер, Алек Салкин, Ральф Гармен
Описание: "Гриффины" (Family Guy) - анимационное ТВ-Шоу, созданное Сетом МакФерлайном (Seth MacFarlane) для телеканала FOX. Как нетрудно догадаться, главными героями шоу является семейка Гриффинов: тупой, но полный сумашедших идей, составляющих львиную долю шуток сериала, отец семейства Питер; его любящя и терпеливая жена Лойс, всеми силами пытающаяся превратить Гриффинов в нормальную семью; их интеллектуально развитый не по годам, вынашивающий идею мирового господства младший сын Стьюи; дочь-ботаник, обречённая из-за этого на одиночество и непонимание как в школе так и дома, Мэг; и 13-ти летний отсталый в развитии лет на 10, сын Крис. Также полноценным членом семьи является пёс Брайн - склонный к меланхолии эстет, спокойно наблюдающий с бокалом вина в лапе над приключениями Питера и остальных членов семьи (и это при всём притом, что остальные собаки в сериале не являются очеловеченными).
Качество: HDTVRip
Формат: AVI
Видео: 640x360 (1.78:1), 23.976 fps, XviD build 65 ~1387 kbps avg, 0.25 bit/pixel
Аудио: 44.1 kHz, MP3, 2 ch, ~128.00 kbps

Подробные технические данные

C:\Users\andreas\Downloads\Family_Guy14\01.avi General Format : AVI Format/Info : Audio Video Interleave File size : 229 MiB Duration : 20mn 57s Overall bit rate : 1 525 Kbps Writing application : VirtualDubMod 1.5.10.2 (build 2540/release) Writing library : VirtualDubMod build 2540/release Video #0 ID : 0 Format : xvid Codec ID : xvid Duration : 20mn 57s Bit rate : 1 388 Kbps Width : 640 pixels Height : 360 pixels Display aspect ratio : 16:9 Frame rate : 23.976 fps Bits/(Pixel*Frame) : 0.251 Stream size : 208 MiB (91%) Audio #1 ID : 1 Format : MPEG Audio Format version : Version 1 Format profile : Layer 3 Codec ID : 55 Codec ID/Hint : MP3 Duration : 20mn 57s Bit rate mode : Constant Bit rate : 128 Kbps Channel(s) : 2 channels Sampling rate : 44.1 KHz Compression mode : Lossy Stream size : 19.2 MiB (8%) Alignment : Split accross interleaves Interleave, duration : 42 ms (1.00 video frame) Interleave, preload duration : 500 ms

Скриншоты меню

Скриншоты

Список серий

1. Pilling Them Softly
2. Papa Has a Rollin' Son

Внимание! Раздача ведётся путём добавления новых серий:

(1) остановить скачивание,
(2) удалить старый торрент у себя из клиента (старые серии удалять не надо),
(3) скачать новый торрент и запустить его у себя в клиенте вместо старого, при этом указать клиенту путь в старую папку куда и должно происходить скачивание новых серий.
Ваш клиент при этом должен произвести хеширование (проверку) старой папки (если не производит сам - помогите ему сделать это), и будет докачивать только те серии которых у вас ещё нет. Старые серии при этом не удаляются, а продолжают раздаваться!
Eсли вы уже удалили старые серии, то предотвратить повторную закачку старых серий можно, отжав галочку в соответсвующих местах при запуске нового торрента. По возможности, желательно не удалять старые серии как можно дольше чтобы релизёр не столько продолжал раздавать старые серии, а смог сконцентрироваться на новых.
Вне форума [Профиль] [ЛС]
Показать сообщения:    
Ответить на тему

Текущее время: Сегодня 15:49

Часовой пояс: GMT + 3



Вы не можете начинать темы
Вы не можете отвечать на сообщения
Вы не можете редактировать свои сообщения
Вы не можете удалять свои сообщения
Вы не можете голосовать в опросах
Вы не можете прикреплять файлы к сообщениям
Вы не можете скачивать файлы