Today is a free download without charge Download

(Blues, Folk, Rock, Blues Rock, Country Rock) John Hiatt - Bring The Family (1987 (Reissue 1994, Remastered, 24Kt Gold CD)) [WavPack (image + .cue)|Lossless]

Reply to topic
 
Author
Message

Igor 1968 ®

Gender:

Longevity: 7 years 10 months

Posts: 140

Location: Харьков Украина

Торрент-статистика

Post 15-Jun-2012 17:51

[Quote]

John Hiatt - Bring The Family (1987 (Reissue 1994, Remastered, 24Kt Gold CD))- Год: 1987 (Reissue 1994, Remastered, 24Kt Gold CD)
Жанр: Blues, Folk, Rock, Blues Rock, Country Rock
Издатель: Ⓟ+Ⓒ 1987, 1994 A&M|Mobile Fidelity Sound Lab. Made in USA.
Catalog #: UDCD 603 (0 15775 16032 3)
Продолжительность: 00:45:11
Кодек: WavPack
Битрейт: Lossless
Тип рипа: image + .cue + log
Наличие сканов: да
Трек лист:
01. Memphis In The Meantime (03:58)
02. Alone In The Dark (04:44)
03. Thing Called Love (04:10)
04. Lipstick Sunset (04:10)
05. Have A Little Faith In Me (04:01)
06. Thank You Girl (04:08)
07. Tip Of My Tongue (05:51)
08. Your Dad Did (04:01
09. Stood Up (05:56)
10. Learning How To Love You (04:08)

Notes :

• Producer – John Chelew •
• Recorded By, Mixed By – Larry Hirsch
• All songs © 1987 Lillybilly Music (BMI) administered by Bug.
• Ultradisc II™ 24 KT Gold CD from Mobile Fidelity Sound Lab "Original Master Recording" collection •
Made in U.S.A.

Отчёт ЕАС:

Код:
Exact Audio Copy V0.99 prebeta 5 from 4. May 2009
EAC extraction logfile from 14. June 2012, 0:46
John Hiatt / Bring The Family (MFSL UDCD 603)
Used drive  : ASUS    DRW-24B3ST   Adapter: 0  ID: 1
Read mode               : Secure
Utilize accurate stream : Yes
Defeat audio cache      : Yes
Make use of C2 pointers : No
Read offset correction                      : 6
Overread into Lead-In and Lead-Out          : No
Fill up missing offset samples with silence : Yes
Delete leading and trailing silent blocks   : No
Null samples used in CRC calculations       : Yes
Used interface                              : Native Win32 interface for Win NT & 2000
Used output format              : User Defined Encoder
Selected bitrate                : 1024 kBit/s
Quality                         : High
Add ID3 tag                     : No
Command line compressor         : C:\Program Files (x86)\EAC\WV\wavpack.exe
Additional command line options : -h -hh -m %s %d
TOC of the extracted CD
     Track |   Start  |  Length  | Start sector | End sector
    ---------------------------------------------------------
        1  |  0:00.37 |  3:59.60 |        37    |    18021
        2  |  4:00.22 |  4:45.38 |     18022    |    39434
        3  |  8:45.60 |  4:11.32 |     39435    |    58291
        4  | 12:57.17 |  4:12.60 |     58292    |    77251
        5  | 17:10.02 |  4:04.38 |     77252    |    95589
        6  | 21:14.40 |  4:10.17 |     95590    |   114356
        7  | 25:24.57 |  5:51.65 |    114357    |   140746
        8  | 31:16.47 |  4:02.73 |    140747    |   158969
        9  | 35:19.45 |  5:57.67 |    158970    |   185811
       10  | 41:17.37 |  4:08.28 |    185812    |   204439
Range status and errors
Selected range
     Filename G:\@ MFSL\John Hiatt © 1987 - Bring The Family (US 1994 MFSL • UDCD 603)\John Hiatt - Bring The Family (MFSL UDCD 603).wav
     Peak level 99.4 %
     Range quality 100.0 %
     Test CRC 78281A35
     Copy CRC 78281A35
     Copy OK
No errors occurred
AccurateRip summary
Track  1  accurately ripped (confidence 19)  [CB2BE372]
Track  2  accurately ripped (confidence 20)  [BC2D9301]
Track  3  accurately ripped (confidence 20)  [711B2928]
Track  4  accurately ripped (confidence 20)  [2FED1083]
Track  5  accurately ripped (confidence 20)  [8F872402]
Track  6  accurately ripped (confidence 20)  [48247EDB]
Track  7  accurately ripped (confidence 20)  [FD7D2143]
Track  8  accurately ripped (confidence 20)  [5EA52D71]
Track  9  accurately ripped (confidence 20)  [CB95B805]
Track 10  accurately ripped (confidence 19)  [68896867]
All tracks accurately ripped
End of status report

Отчёт auCDtect Task manager:

Код:
-----------------------
DON'T MODIFY THIS FILE
-----------------------
PERFORMER: auCDtect Task Manager, ver. 1.5.1RC6 build 1.5.1.7
Copyright (c) 2008-2010 y-soft. All rights reserved
http://y-soft.org
ANALYZER: auCDtect: CD records authenticity detector, version 0.8.2
Copyright (c) 2004 Oleg Berngardt. All rights reserved.
Copyright (c) 2004 Alexander Djourik. All rights reserved.
FILE: John Hiatt - Bring The Family (MFSL UDCD 603).wv
  Size: 267895462 Hash: 161059897B62380CB9D306C8715087B9 Accuracy: -m0
  Conclusion: CDDA 100%
  Signature: 547122D7B9C6ED200863AACFB3F9424DF4868383


Last edited by Igor 1968 on 2012-06-15 19:28; edited 1 time in total
Other forum [Profile] [PM]
Display posts from previous:    
Reply to topic

The time now is: Today 08:34

All times are GMT + 3 Hours



You cannot post new topics in this forum
You cannot reply to topics in this forum
You cannot edit your posts in this forum
You cannot delete your posts in this forum
You cannot vote in polls in this forum
You cannot attach files in this forum
You cannot download files in this forum