Today is a free download without charge Download

Amagi Brilliant Park / Amaburi / Великолепный парк Амаги [2014, TV, 13 ep + 6 SP] BDRip Hi10p 720p Raw+Rus x2(ext)

Reply to topic
 
Author
Message

Clavik ®

Gender:

Longevity: 7 years 3 months

Posts: 2496

Location: Украина

Торрент-статистика

Post 03-Oct-2015 15:15

[Quote]

Amagi Brilliant Park / Amaburi / Великолепный парк Амаги- Жанр: комедия, фэнтези
Тип: TV-сериал
Продолжительность: 13 эпизодов и 6 спэшлов по 25 минут
Выпуск: c 07.10.2014 по 26.12.2014
Автор: Гато Сёдзи
Режиссер: Такэмото Ясухиро
Производство: Kyoto Animation & Animation Do-Информационные ссылки: AniDB || World Art || MAL || ANN-Перевод:
  • Русские субтитры от YakuSub Studio [TV]
    Переводчик/Перевод песен: Nika_Elrik, Редактор: Aero, Оформление: Loony Key
  • Русские субтитры от Sa4ko aka Kiyoso & Zenobian [SP]
-Описание:
Сэйя Каниэ в детстве был знаменитым актером, но потом пережил трагедию и спрятался в образе законченного нарцисса и эгоиста. Красавца-отличника ничто не волнует, хотя… можно и послушать, когда тихая одноклассница Исудзу Сэнто сует тебе в лоб неясно откуда взявшийся старинный мушкет. Так Сэйя узнал о парке развлечений Амаги, оказавшимся анклавом волшебной Кленовой страны, обитатели которой не могут жить без светлой маны. Увы, как поведала местная принцесса Латифа, людей в ее парк ходит и радуется все меньше, и послам волшебства грозит гибель, как цветкам в пустыне. Короче, без Каниэ они точно пропадут!
Что ж, гений шоу-бизнеса пробуждается лишь для того, чтобы совершить невозможное! Не беда, что парк совсем обветшал, денег нет, а феи с монстрами разучились работать и смирились с жалкой участью. Не страшно, что рядом крутятся ушлые ребята, готовые прибрать к рукам лакомый кусочек. Сэйя заключил с ними пари, что за три месяца парк примет 250 тысяч посетителей – в сотню раз больше, чем до того! И, надо сказать, что с идеями нового лидера и помощью Латифы с Сэнто машина Амаги хоть со скрипом, но закрутилась и начала набирать ход. Успеют ли герои в срок? Кто сомневается, тому не место в стройных рядах работников нашего парка!© Hollow, World Art-Качество: BDRip | Энкод: Winter
Формат: MKV
Видео: x264 (10 bit) 1280x720, ~3200 Kbps, 23.976 fps
Аудио: Vorbis, 256 Kbps, 48.0 kHz, 2 ch
Аудио: AC-3, 192 Kbps, 48.0 kHz, 2 ch (внешними файлами)
Субтитры: ASS, Полные | Надписи (внешними файлами) -

Список озвучек:

  • двухголосая (муж./жен.) от Absurd & Eladiel [TV]
  • двухголосая (муж./жен.) от GreyMoon & NesTea (SHIZA) [TV]

Список эпизодов:

01. Not Enough Visitors!
02. Not Enough Time!
03. The Plan Isn`t Working!
04. The Secretary Is Useless!
05. Not Enough Money!
06. Not Enough Workers!
07. The Pool Is Dangerous!
08. Unrequited Love!
09. Can`t Build Any Teamwork!
10. Out of Options!
11. No More Worries!
12. No One Can Predict the Future!
13. Not a Good PV!
S1. Exciting Mini Theater: Graffiti Backstage 1
S2. Exciting Mini Theater: Graffiti Backstage 2
S3. Exciting Mini Theater: Graffiti Backstage 3
S4. Exciting Mini Theater: Graffiti Backstage 4
S5. Exciting Mini Theater: Graffiti Backstage 5
S6. Exciting Mini Theater: Graffiti Backstage 6

Тех. параметры:

Код:
General
Unique ID                   : 248040232692344278138870671719517978539 (0xBA9ACFA7E2F8DC61B72862565380FFAB)
Complete name               : Amagi Brilliant Park [BD] [720p]\[Winter] Amagi Brilliant Park 01 [BDrip 1280x720 x264 Vorbis].mkv
Format                      : Matroska
Format version              : Version 2
File size                   : 605 MiB
Duration                    : 24mn 11s
Overall bit rate mode       : Variable
Overall bit rate            : 3 495 Kbps
Encoded date                : UTC 2015-01-06 13:05:09
Writing application         : mkvmerge v2.9.8 ('C'est le bon') built on Aug 13 2009 12:49:06
Writing library             : libebml v0.7.7 + libmatroska v0.8.1
Video
ID                          : 1
Format                      : AVC
Format/Info                 : Advanced Video Codec
Format profile              : High [url=mailto:10@L4.1]10@L4.1[/url]
Format settings, CABAC      : Yes
Format settings, ReFrames   : 9 frames
Codec ID                    : V_MPEG4/ISO/AVC
Duration                    : 24mn 11s
Bit rate                    : 3 169 Kbps
Width                       : 1 280 pixels
Height                      : 720 pixels
Display aspect ratio        : 16:9
Frame rate mode             : Constant
Frame rate                  : 23.976 fps
Color space                 : YUV
Chroma subsampling          : 4:2:0
Bit depth                   : 10 bits
Scan type                   : Progressive
Bits/(Pixel*Frame)          : 0.143
Stream size                 : 548 MiB (91%)
Writing library             : x264 core 132 r2309 3b1f1f7
Encoding settings           : cabac=1 / ref=9 / deblock=1:-2:-2 / analyse=0x3:0x133 / me=umh / subme=9 / psy=1 / psy_rd=0.90:0.00 / mixed_ref=1 / me_range=24 / chroma_me=1 / trellis=2 / 8x8dct=1 / cqm=0 / deadzone=21,11 / fast_pskip=1 / chroma_qp_offset=-2 / threads=12 / lookahead_threads=2 / sliced_threads=0 / nr=0 / decimate=0 / interlaced=0 / bluray_compat=0 / constrained_intra=0 / bframes=8 / b_pyramid=2 / b_adapt=2 / b_bias=0 / direct=1 / weightb=1 / open_gop=0 / weightp=2 / keyint=250 / keyint_min=23 / scenecut=40 / intra_refresh=0 / rc=crf / mbtree=0 / crf=15.7 / qcomp=0.70 / qpmin=9 / qpmax=40 / qpstep=4 / ip_ratio=1.40 / pb_ratio=1.30 / aq=1:0.90
Default                     : No
Forced                      : No
Audio
ID                          : 2
Format                      : Vorbis
Format settings, Floor      : 1
Codec ID                    : A_VORBIS
Duration                    : 24mn 11s
Bit rate mode               : Variable
Bit rate                    : 256 Kbps
Channel(s)                  : 2 channels
Sampling rate               : 48.0 KHz
Compression mode            : Lossy
Stream size                 : 44.3 MiB (7%)
Writing library             : libVorbis (Schaufenugget) (20101101 (Schaufenugget))
Language                    : Japanese
Default                     : Yes
Forced                      : No

Информация о релизе:

  • Выбор видео, перевода, озвучки, а также типа сборки материала осуществляется релизером и не подлежит обсуждению. Если вы считаете, что раздаваемый материал противоречит правилам раздела "Аниме", сообщите об этом одному из модераторов раздела.
  • В случае появления нового материала или же лучшего по качеству материала релизер оставляет за собой право обновить раздачу. В этом случае вам необходимо ознакомиться с изменениями (добавлениями) и перекачать торрент.
  • Данный релиз предназначен для просмотра на ПК. Воспроизведение на иных проигрывателях не гарантируется. Для просмотра рекомендуется Media Player Classic с установленным пакетом кодеков K-Lite.
  • Данный релиз предназначен для просмотра с внешними субтитрами и внешними звуковыми дорожками.
    • Для просмотра с внешней звуковой дорожкой нужно:
      перекинуть файлы .mka из папки "RUS Sound []" в одну папку с видео и переключить звуковую дорожку в плеере при просмотре.
    • Для просмотра с субтитрами нужно:
      перекинуть файлы .ass из папки "RUS Subtitles []" в одну папку с видео - плеер подгрузит их автоматически при открытии видео.
-            -

_________________


Other forum [Profile] [PM]

Williampal

Longevity: 3 months

Posts: 2

Торрент-статистика

Post 24-Dec-2020 09:24 (after 5 years 2 months)

[Quote]

производство электромонтажного оборудования. В Санкт-Петербурге. Оюбые материалы, размеры, быстрота, качество
швеллер шп 60х35 перфорированный
швеллер перфорированный шп 60х35 у1 цена
нло 200х50 ostec лестничный лоток замковый 200х50х3000
лоток лестничный замковый 400х50х3000
астра электрик спб
https://yandex.ru/maps/org/astra_elektrik/54843690522/
авдкат в санкт-петербурге
юрист в санкт-петербурге
Other forum [Profile] [PM]
Display posts from previous:    
Reply to topic

The time now is: Today 08:17

All times are GMT + 3 Hours



You cannot post new topics in this forum
You cannot reply to topics in this forum
You cannot edit your posts in this forum
You cannot delete your posts in this forum
You cannot vote in polls in this forum
You cannot attach files in this forum
You cannot download files in this forum