Today is a free download without charge Download

Isuca / Исука [2015, TV, 10 ep] BDRip Hi10p 720p Raw+Rus x4(ext)

Reply to topic
 
Author
Message

Clavik ®

Gender:

Longevity: 7 years 4 months

Posts: 2496

Location: Украина

Торрент-статистика

Post 03-Oct-2015 15:15

[Quote]

イスカ / Isuca / Исука- Жанр: приключения, фэнтези, этти
Тип: TV-сериал
Продолжительность: 10 эпизодов по 25 минут
Выпуск: c 24.01.2015 по 28.03.2015
Автор: Такахаси Осаму
Снято по манге: Isuca
Режиссер: Иванага Акира
Производство: ARMS-Информационные ссылки: AniDB || World Art || MAL || ANN-Перевод:
  • Русские субтитры от KILD
    Переводчики: AleX_MytH, atom4ik, Evafan Satin, hoshizora, Jarly, Nachtwandler, Schum, SeeR, Seiya Loveless, Uker, Сова, Zool, Редакторы: Bel-chan, Матадор, Komugi-chan
-Описание:
Синьитиро ищет работу, чтобы отплатить счета за квартиру. Его учительница предлагает ему работать у ее знакомых, просто убираясь у тех дома.
Человеком, который соглашается принять Асано, оказывается Сакуя — 37-я глава клана Шимазу, чьей работой является изгнание и уничтожение мистических существ.
Синьитиро случайно выпускает одно из существ, которое некогда запечатала Сакуя. Теперь этим двоим придется работать вместе, чтобы поймать его.
Здесь и начинается наша комическая история об охоте за чудовищами!-Качество: BDRip | Энкод: Winter
Формат: MKV
Видео: x264 (10 bit) 1280x720, ~4200 Kbps, 23.976 fps
Аудио: Vorbis, 256 Kbps, 48.0 kHz, 2 ch
Аудио: AC-3, 192 Kbps, 48.0 kHz, 2 ch (внешними файлами)
Субтитры: ASS, Полные | Надписи (внешними файлами)

Список озвучек:

  • двухголосая (жен./муж.) от Demetra & ZaRT (Animedia)
  • двухголосая (жен./муж.) от Hamletka Cezarevna & 9th Unknown (AniDub)
  • двухголосая (муж./жен.) от Kano & Aska (SHIZA)
  • двухголосая (муж./жен.) от loster01 & Emeri

Список эпизодов:

01. Chance Meeting
02. True Name
03. Confrontation
04. Shadow Play
05. Eye of Truth
06. Promise
07. Light and Dark
08. Trials
09. Attack
10. Resolution

Тех. параметры:

Код:
General
Unique ID                   : 228465172650699780425011374636745233018 (0xABE0CAAE8A0F11DFBEE43897DE2A127A)
Complete name               : Isuca [BD] [720p]\[W] Isuca 01 [BDrip 1280x720 x264 Vorbis].mkv
Format                      : Matroska
Format version              : Version 2
File size                   : 762 MiB
Duration                    : 23mn 37s
Overall bit rate mode       : Variable
Overall bit rate            : 4 512 Kbps
Encoded date                : UTC 2015-07-26 10:58:14
Writing application         : mkvmerge v2.9.8 ('C'est le bon') built on Aug 13 2009 12:49:06
Writing library             : libebml v0.7.7 + libmatroska v0.8.1
Video
ID                          : 1
Format                      : AVC
Format/Info                 : Advanced Video Codec
Format profile              : High [url=mailto:10@L4.1]10@L4.1[/url]
Format settings, CABAC      : Yes
Format settings, ReFrames   : 9 frames
Codec ID                    : V_MPEG4/ISO/AVC
Duration                    : 23mn 37s
Bit rate                    : 4 166 Kbps
Width                       : 1 280 pixels
Height                      : 720 pixels
Display aspect ratio        : 16:9
Frame rate mode             : Constant
Frame rate                  : 23.976 fps
Color space                 : YUV
Chroma subsampling          : 4:2:0
Bit depth                   : 10 bits
Scan type                   : Progressive
Bits/(Pixel*Frame)          : 0.189
Stream size                 : 704 MiB (92%)
Writing library             : x264 core 132 r2309 3b1f1f7
Encoding settings           : cabac=1 / ref=9 / deblock=1:-2:-2 / analyse=0x3:0x133 / me=umh / subme=9 / psy=1 / psy_rd=0.90:0.00 / mixed_ref=1 / me_range=24 / chroma_me=1 / trellis=2 / 8x8dct=1 / cqm=0 / deadzone=21,11 / fast_pskip=1 / chroma_qp_offset=-2 / threads=12 / lookahead_threads=2 / sliced_threads=0 / nr=0 / decimate=0 / interlaced=0 / bluray_compat=0 / constrained_intra=0 / bframes=8 / b_pyramid=2 / b_adapt=2 / b_bias=0 / direct=1 / weightb=1 / open_gop=0 / weightp=2 / keyint=250 / keyint_min=23 / scenecut=40 / intra_refresh=0 / rc=crf / mbtree=0 / crf=15.7 / qcomp=0.70 / qpmin=9 / qpmax=40 / qpstep=4 / ip_ratio=1.40 / pb_ratio=1.30 / aq=1:0.90
Default                     : No
Forced                      : No
Audio
ID                          : 2
Format                      : Vorbis
Format settings, Floor      : 1
Codec ID                    : A_VORBIS
Duration                    : 23mn 37s
Bit rate mode               : Variable
Bit rate                    : 256 Kbps
Channel(s)                  : 2 channels
Sampling rate               : 48.0 KHz
Compression mode            : Lossy
Stream size                 : 43.2 MiB (6%)
Writing library             : libVorbis (Schaufenugget) (20101101 (Schaufenugget))
Language                    : Japanese
Default                     : Yes
Forced                      : No

Информация о релизе:

  • Выбор видео, перевода, озвучки, а также типа сборки материала осуществляется релизером и не подлежит обсуждению. Если вы считаете, что раздаваемый материал противоречит правилам раздела "Аниме", сообщите об этом одному из модераторов раздела.
  • В случае появления нового материала или же лучшего по качеству материала релизер оставляет за собой право обновить раздачу. В этом случае вам необходимо ознакомиться с изменениями (добавлениями) и перекачать торрент.
  • Данный релиз предназначен для просмотра на ПК. Воспроизведение на иных проигрывателях не гарантируется. Для просмотра рекомендуется Media Player Classic с установленным пакетом кодеков K-Lite.
  • Данный релиз предназначен для просмотра с внешними субтитрами и внешними звуковыми дорожками.
    • Для просмотра с внешней звуковой дорожкой нужно:
      перекинуть файлы .mka из папки "RUS Sound []" в одну папку с видео и переключить звуковую дорожку в плеере при просмотре.
    • Для просмотра с субтитрами нужно:
      перекинуть файлы .ass из папки "RUS Subtitles []" в одну папку с видео - плеер подгрузит их автоматически при открытии видео.
-            -

_________________


Other forum [Profile] [PM]
Display posts from previous:    
Reply to topic

The time now is: Today 09:18

All times are GMT + 3 Hours



You cannot post new topics in this forum
You cannot reply to topics in this forum
You cannot edit your posts in this forum
You cannot delete your posts in this forum
You cannot vote in polls in this forum
You cannot attach files in this forum
You cannot download files in this forum