Сегодня идет свободное скачивание без начисления Download

Симпсоны / The Simpsons / Сезон 27 / Серии 1 из 22 (Марк Керклэнд / Mark Kirkland ...) [2015 г., мультфильм, комедия, семейный, ..., HDTVRip 720p] MVO (OmskBird) + Original (Eng) [обновляемая]

Ответить на тему
 
Автор
Сообщение

Omen ®

Стаж: 5 лет

Сообщений: 190530

Торрент-статистика

Пост 30-Сен-2015 03:00

[Цитировать]

- Симпсоны / The Simpsons
«Just a product of society that's lost its good manners»
-- Производство: США
Жанр: мультфильм, комедия, семейный, ...
Год выпуска: 2015 г.
Мировая премьера: 17 декабря 1989, ...
Дата выхода DVD: 21 августа 2008, «Двадцатый Век Фокс СНГ», ...
-
Релиз: Студия |"OmskBird"|
Перевод: Многоголосый закадровый, профессиональный
Оригинальный аудиопоток: английский
-
Роли озвучивали • Павел Ярощик, Ольга Федорова, Егор Шилов, Анна Рязанова, Полина Набиева и Владислав Филиппов
Звукорежиссер • Павел Ярощик
-
Режиссер: Марк Керклэнд / Mark Kirkland, Стивен Дин Мур / Steven Dean Moore, Джим Рирдон / Jim Reardon ...
В ролях: Дэн Кастелланета, Джули Кавнер, Нэнси Картрайт, Ярдли Смит, Гарри Ширер, Хэнк Азария, Памела Хейден, Тресс МакНилл, Карл Видерготт, Мэгги Росвэлл ...-Описание:
Симпсоны живут в вымышленном городе Спрингфилд, со своим обществом и историей. Гомер - отец семейства, который дает плохие советы и работает инспектором безопасности на атомной электростанции; Мардж - любящая мать и жена, старается сохранить спокойствие в семье; Барт - 10 летний хулиган; Лиза - философский 8-летний ребенок; и Мэгги - младенец, который общается посредством соски.-
Сезон: 27
Серии: 1 из 22 серий
Продолжительность: ~ 00:22:00 мин серия-Качество видео: HDTVRip 720p
Формат: MKV
Видеокодек: AVC (High@L4.0)
Аудиокодек: AC-3
Видео: AVC at 2286 Кбит/сек: 1280 x 718 (1.778) at 23.976 fps
Аудио Rus: AC-3 at 448 Кбит/сек: 6 каналов, 48,0 КГц |"OmskBird"|
Аудио Eng: AC-3 at 448 Кбит/сек: 6 каналов, 48,0 КГц |Original|
Cубтитры: отсутствуют
- -

Список серий:

  • Мечта любого мужчины (Every Man's Dream)
-

MediaInfo:

Общее
Уникальный идентификатор : 225206650360062307616692479700828169032 (0xA96D3921098BDEC48E6B4E48F6882348)
Полное имя : E:\_Сериалы\_Сериалы\The Simpsons S27 HDTV 720p (omskBird)\The Simpsons S27E01 HDTVRip 720p (OmskBird).mkv
Формат : Matroska
Версия формата : Version 4 / Version 2
Размер файла : 496 Мбайт
Продолжительность : 21 м.
Общий поток : 3247 Кбит/сек
Дата кодирования : UTC 2015-09-29 14:49:20
Программа кодирования : mkvmerge v8.3.0 ('Over the Horizon') 64bit
Библиотека кодирования : libebml v1.3.1 + libmatroska v1.4.2
DURATION : 00:21:22.496000000
NUMBER_OF_FRAMES : 40078
NUMBER_OF_BYTES : 71819776
_STATISTICS_WRITING_APP : mkvmerge v8.3.0 ('Over the Horizon') 64bit
_STATISTICS_WRITING_DATE_UTC : 2015-09-29 14:49:20
_STATISTICS_TAGS : BPS DURATION NUMBER_OF_FRAMES NUMBER_OF_BYTES
Видео
Идентификатор : 1
Формат : AVC
Формат/Информация : Advanced Video Codec
Профиль формата : High@L4.1
Параметр CABAC формата : Да
Параметр ReFrames формата : 5 кадров
Идентификатор кодека : V_MPEG4/ISO/AVC
Продолжительность : 21 м.
Битрейт : 2286 Кбит/сек
Ширина : 1280 пикселей
Высота : 718 пикселей
Соотношение сторон : 16:9
Режим частоты кадров : Постоянный
Частота кадров : 23,976 кадра/сек
Цветовое пространство : YUV
Субдискретизация насыщенности : 4:2:0
Битовая глубина : 8 бит
Тип развёртки : Прогрессивная
Бит/(Пиксели*Кадры) : 0.104
Размер потока : 350 Мбайт (70%)
Библиотека кодирования : x264 core 148 r2597 e86f3a1
Настройки программы : cabac=1 / ref=5 / deblock=1:0:0 / analyse=0x3:0x113 / me=umh / subme=8 / psy=1 / psy_rd=1.00:0.00 / mixed_ref=1 / me_range=16 / chroma_me=1 /
trellis=1 / 8x8dct=1 / cqm=0 /deadzone=21,11 / fast_pskip=1 / chroma_qp_offset=-2 / threads=18 / lookahead_threads=3 / sliced_threads=0 / nr=0 / decimate=1 / interlaced=0 / bluray_compat=0 /
constrained_intra=0 / bframes=3 / b_pyramid=2 / b_adapt=2 / b_bias=0 / direct=3 / weightb=1 / open_gop=0 / weightp=2 / keyint=250 / keyint_min=23 / scenecut=40 / intra_refresh=0 /
rc_lookahead=50 / rc=crf / mbtree=1 / crf=18.0 / qcomp=0.60 / qpmin=0 / qpmax=69 / qpstep=4 / ip_ratio=1.40 / aq=1:1.00
Язык : English
Default : Да
Forced : Нет
Цветовой диапазон : Limited
Коэффициенты матрицы : BT.709
DURATION : 00:21:22.531000000
NUMBER_OF_FRAMES : 30750
NUMBER_OF_BYTES : 376562120
_STATISTICS_WRITING_APP : mkvmerge v8.3.0 ('Over the Horizon') 64bit
_STATISTICS_WRITING_DATE_UTC : 2015-09-29 14:49:20
_STATISTICS_TAGS : BPS DURATION NUMBER_OF_FRAMES NUMBER_OF_BYTES
Аудио #1
Идентификатор : 2
Формат : AC-3
Формат/Информация : Audio Coding 3
Расширение режима : CM (complete main)
Параметр Endianness формата : Big
Идентификатор кодека : A_AC3
Продолжительность : 21 м.
Вид битрейта : Постоянный
Битрейт : 448 Кбит/сек
Каналы : 6 каналов
Расположение каналов : Front: L C R, Side: L R, LFE
Частота : 48,0 КГц
Метод сжатия : С потерями
Размер потока : 68,5 Мбайт (14%)
Заголовок : OmskBird 5.1
Язык : Russian
Default : Да
Forced : Нет
Аудио #2
Идентификатор : 3
Формат : AC-3
Формат/Информация : Audio Coding 3
Расширение режима : CM (complete main)
Параметр Endianness формата : Big
Идентификатор кодека : A_AC3
Продолжительность : 21 м.
Вид битрейта : Постоянный
Битрейт : 448 Кбит/сек
Каналы : 6 каналов
Расположение каналов : Front: L C R, Side: L R, LFE
Частота : 48,0 КГц
Метод сжатия : С потерями
Размер потока : 68,5 Мбайт (14%)
Заголовок : original 5.1
Язык : English
Default : Нет
Forced : Нет
-

Скриншот c названием фильма

 
-Скриншоты:
       
-

Еще

-

Внимание! Раздача ведётся путём добавления новых серий!

Раздача ведётся путём добавления новых серий; при каждом добавлении создаётся новый торрент.
Чтобы начать докачку новой серии, пользователям необходимо сделать следующее:
1. остановить скачивание,
2. удалить старый торрент у себя из клиента (старые серии удалять не надо),
3. скачать новый торрент и запустить его у себя в клиенте вместо старого, при этом указать клиенту путь в старую папку, куда и должно происходить скачивание новых серий.
Ваш клиент при этом должен произвести хеширование (проверку) старой папки (если не производит сам - помогите ему сделать это), и будет докачивать только те серии которых у вас ещё нет. Старые серии при этом не удаляются, а продолжают раздаваться!
Eсли вы уже удалили старые серии, то предотвратить повторную закачку старых серий можно, отжав галочку в соответствующих местах при запуске нового торрента. По возможности, желательно не удалять старые серии как можно дольше, чтобы релизёр не столько продолжал раздавать старые серии, а смог сконцентрироваться на новых.
Совет для тех, кто не хочет ждать перехеширования:
Создайте ещё одну папку рядом с папкой сериала (рядом, а не в ней!!!). Каждую новую серию после удачной загрузки копируйте в новую папку так чтобы ваша основная папка всегда была пуста. Когда ваш новый торрент предложит вам закачать все файлы, выберете только последнюю. Для сидирования же укажите адрес новой папки.
Как закачать отдельный файл из торрента или докачать ранее пропущенные файлы торрента!
-

Как закачать отдельный файл

1. Открыть торрент
2. Снять галки с тех файлов торрента, которые мы не хотим закачивать. Оставляем только на нужных нам файлах (файле).
3. Нажать О.К.
В клиенте utorrent
Инструкция
1) Открыть торрент

2) Снять галки с тех файлов торрента, которые мы не хотим закачивать:
* либо вручную, снимая с каждого файла галку( скрин №1)
* либо, нажав кнопку "Снять метки (Select None)", сняв сразу со всех файлов(скрин №2)
№1

№2

Оставляем только на нужных нам файлах (файле).

3)Нажать О.К
-Добавлена первая серия двадцать седьмого сезона
Вне форума [Профиль] [ЛС]
Показать сообщения:    
Ответить на тему

Текущее время: Сегодня 07:22

Часовой пояс: GMT + 3



Вы не можете начинать темы
Вы не можете отвечать на сообщения
Вы не можете редактировать свои сообщения
Вы не можете удалять свои сообщения
Вы не можете голосовать в опросах
Вы не можете прикреплять файлы к сообщениям
Вы не можете скачивать файлы