Сегодня идет свободное скачивание без начисления Download

Предки (Сезон 1, 12 серий из 12) + Азбука (15 серий) (Олег Печень) [2011г., Рисованная анимация, Детский, Развивающий, Приключения, ... WEB-DLRip]

Ответить на тему
 
Автор
Сообщение

Omen ®

Стаж: 5 лет

Сообщений: 190529

Торрент-статистика

Пост 15-Сен-2015 14:44

[Цитировать]

Предки- Страна: Беларусь
Производство: Студия Chin Up (г. Гомель)
Год выпуска: 2011
Жанр: Рисованная анимация, Детский, Развивающий, Приключения-Режиссер: Олег Печень-Описание фильма:
«Предки» – остроумный, добрый и познавательный мультсериал для детей от 3 до 5 лет, действие которого происходит в мире, похожем на нечто среднее между доисторическими временами и современностью. Главные герои – обитающая в деревне Предково семья, в которой есть папа, мама, сын Щапа, дочка Ляля и домашняя лиса. Они живут в оборудованном всем необходимым доме, отдаленно напоминающем пещеру, ездят на деревянном автомобиле, при этом Щапа и Леля ходят в детский садик, а родители ездяь за продуктами в круглосуточный супермаркет – словом, хоть и отличаются от нас, но не сильно. Стоит ли говорить, что эта семья ежедневно переживает маленькие (а иногда и большие) приключения. То на пороге их дома окажется бездомный щенок, то дети пытаются самостоятельно испечь блины и заливают тестом всю кухню… Скучать им не приходится...
«Азбука» от мультсериала «Предки» - это развиващий мультик, который позволит вашему малышу с лёгкостью выучить алфавит. Если вы хотите, чтобы ваш ребёнок был внимательным, собранным и при этом ещё учил
буквы, то "Азбука" - то, что вам нужно. В каждой серии обучение азбуке происходит в процессе полного игр и забав увлекательного путешествия по тропическим джунглям, в котором дети смогут найти и запомнить новую букву, научиться её правильно произносить и придумывать слова, с неё начинающиеся.-Продолжительность:
Предки - 12 x ~ 00:06:38,
Азбука - 15 x ~ 00:03:06-Качество видео: WEB-DLRip
Формат: AVI
Видеокодек: XviD
Аудиокодек: AC-3
Видео: MPEG-4 Visual at 1339 Кбит/сек: 720 x 400 (1.778) at 25.000 fps, 0.19 Бит/Пиксели
Аудио Rus: MPEG Audio at 192 Кбит/сек: 2 канала, 44,1 КГц
-

О мультфильме и его создателях:

"Сейчас много разных мультиков, но в них не знакомят детей с жизненными принципами", - подумали парни из Гомеля и приступили к созданию мультсериала "Предки", целевая аудитория которого от 3 до 5 лет.
"В этом возрасте свойственно фантазировать, а времена динозавров позволяют познавать мир во всей его красе", - говорят создатели "Предков". Первый мультфильм выложили на YouTube, скоро там появятся и остальные серии.
..."Мы решили: пора входить во взрослую жизнь - так возникла идея создания мультика для детей"
- Во времена студенчества мы играли в КВН, сочиняли шутки, готовили "А ну-ка, первокурсник", потом писали сценарии к сериалам и фильмам.
Нам нравилось заниматься творчеством и потому, когда пришло время начинать взрослую жизнь, решили создать анимационную студию Chin Up,
- рассказывает директор студии Олег Печень, который руководит творческим процессом, он же режиссер мультсериала "Предки".
Студия арендует офис в уютном коттедже в центре Гомеля. Но ребята говорят, что все у них продумано так, чтобы не было привязанности к определенному месту.
К работе над своими проектами они привлекают и фрилансеров, причем не только из Беларуси. Начали с изготовления трейлеров к российским фильмам.
Постепенно зрела мысль, что команде под силу сделать многосерийный анимационный фильм.
...В коллективе единомышленников весьма разнообразный состав: спецназовец, архитектор, эколог, географ, психолог, студенты.
Всего над мультиком работают 15 молодых ребят из Беларуси и России. Примечательно, что ни у кого из них пока нет своих детей...Читать полностью
-

Media Info

Общее
Полное имя : E:\_Сериалы\_Сериалы\Предки\Предки 01 серия.avi
Формат : AVI
Формат/Информация : Audio Video Interleave
Размер файла : 71,5 Мбайт
Продолжительность : 6 м. 28 с.
Общий поток : 1543 Кбит/сек
Программа кодирования : MEncoder SVN-r30881(20100311-gcc4.3.3)
Библиотека кодирования : MPlayer
Видео
Идентификатор : 0
Формат : MPEG-4 Visual
Профиль формата : Advanced Simple@L5
Параметр BVOP формата : 2
Параметр QPel формата : Нет
Параметр GMC формата : Без точки перехода
Параметр матрицы формата : Default (H.263)
Идентификатор кодека : XVID
Идентификатор кодека/Подсказка : XviD
Продолжительность : 6 м. 28 с.
Битрейт : 1339 Кбит/сек
Ширина : 720 пикселей
Высота : 400 пикселей
Соотношение сторон : 16:9
Соотношение сторон в оригинале : 16:9
Частота кадров : 25,000 кадров/сек
Цветовое пространство : YUV
Субдискретизация насыщенности : 4:2:0
Битовая глубина : 8 бит
Тип развёртки : Прогрессивная
Метод сжатия : С потерями
Бит/(Пиксели*Кадры) : 0.186
Размер потока : 62,0 Мбайт (87%)
Библиотека кодирования : XviD 1.2.1 (UTC 2008-12-04)
Аудио
Идентификатор : 1
Формат : MPEG Audio
Версия формата : Version 1
Профиль формата : Layer 3
Режим : Joint stereo
Идентификатор кодека : 55
Идентификатор кодека/Подсказка : MP3
Продолжительность : 6 м. 28 с.
Вид битрейта : Постоянный
Битрейт : 192 Кбит/сек
Каналы : 2 канала
Частота : 44,1 КГц
Метод сжатия : С потерями
Задержка видео : 40 мс.
Размер потока : 8,90 Мбайт (12%)
Выравнивание : Соединение по промежуткам
Продолжительность промежутка : 26 мс. (0,65 видеокадр)
Время предзагрузки промежутка : 522 мс.
-

Скриншот c названием фильма

 
-Скриншоты:
       

Скриншоты Азбука:

       -        -        
Вне форума [Профиль] [ЛС]
Показать сообщения:    
Ответить на тему

Текущее время: Сегодня 12:34

Часовой пояс: GMT + 3



Вы не можете начинать темы
Вы не можете отвечать на сообщения
Вы не можете редактировать свои сообщения
Вы не можете удалять свои сообщения
Вы не можете голосовать в опросах
Вы не можете прикреплять файлы к сообщениям
Вы не можете скачивать файлы