Сегодня идет свободное скачивание без начисления Download

Том и Джерри. Полная коллекция / Tom And Jerry. Classic Collection / Серии: 14, 77, 100 из 161 (Джозеф Барбера, Уильям Ханна, Джин Дейч, Чак Джонс / Joseph Barbera, William Hanna, Gene Deitch, Chuck Jones) [1940, Приключения, комедия, DVB] MVO (R5)

Ответить на тему
 
Автор
Сообщение

Omen ®

Стаж: 4 года 10 месяцев

Сообщений: 190643

Торрент-статистика

Пост 25-Авг-2015 18:00

[Цитировать]

Том и Джерри. Полная коллекция / Tom And Jerry. Classic Collection- Страна: США
Жанр: Приключения, комедия
Продолжительность: 00:06:51
Года выпуска: 1940
Перевод: Профессиональный (многоголосый закадровый)
Русские субтитры: нет
Режиссёры: Джозеф Барбера, Уильям Ханна, Джин Дейч, Чак Джонс / Joseph Barbera, William Hanna, Gene Deitch, Chuck Jones
Описание: Кот Том и мышонок Джерри - парочка, прославившаяся на весь мир. Уже несколько десятков лет Том гоняется за Джерри с неослабевающим азартом. Том придумывает всё новые и новые хитроумные уловки, чтобы поймать Джерри, но мышонок всё время выкручивается с не меньшей изобретательностью.
Доп. информация: Данная раздача является дополнением к лицензионному изданию Warner Home Video / Universal Pictures Rus], т.к. представляет собой недостающие серии к нему.-Семпл-Качество: DVB
Формат: TS
Видео: AVC, 720x576, 25.000 fps, 3.171 Kbps
Аудио: MP2, 48.0 KHz, 2 ch, 256 Kbps
Субтитры: Отсутствуют-

Список серий

014. The Million Dollar Cat / Кот - миллионер (1944)
077. Just Ducky / Про утёнка, который не умел плавать (1953)
100. Busy Buddies / Заботливые няньки (1956)

Подробные технические данные

GeneralID : 1 (0x1)Complete name : D:\IPTV\Том и Джерри\014.Кот-миллионер.The Million Dollar Cat.(1944).tsFormat : MPEG-TSFile size : 177 MiBDuration : 6mn 51sOverall bit rate mode : VariableOverall bit rate : 3 608 Kbps
VideoID : 67 (0x43)Menu ID : 1 (0x1)Format : AVCFormat/Info : Advanced Video CodecFormat profile : High@L3Format settings, CABAC : YesFormat settings, ReFrames : 3 framesCodec ID : 27Duration : 6mn 51sBit rate : 3 171 KbpsWidth : 720 pixelsHeight : 576 pixelsDisplay aspect ratio : 4:3Frame rate : 25.000 fpsStandard : ComponentColor space : YUVChroma subsampling : 4:2:0Bit depth : 8 bitsScan type : InterlacedScan order : Top Field FirstBits/(Pixel*Frame) : 0.306Stream size : 156 MiB (88%)Color range : LimitedColor primaries : BT.601 PALTransfer characteristics : BT.470 System B, BT.470 System GMatrix coefficients : BT.601
AudioID : 68 (0x44)Menu ID : 1 (0x1)Format : MPEG AudioFormat version : Version 1Format profile : Layer 2Codec ID : 3Duration : 6mn 51sBit rate mode : ConstantBit rate : 256 KbpsChannel(s) : 2 channelsSampling rate : 48.0 KHzCompression mode : LossyDelay relative to video : -40msStream size : 12.6 MiB (7%)Language : English

Скриншоты

Вне форума [Профиль] [ЛС]
Показать сообщения:    
Ответить на тему

Текущее время: Сегодня 05:58

Часовой пояс: GMT + 3



Вы не можете начинать темы
Вы не можете отвечать на сообщения
Вы не можете редактировать свои сообщения
Вы не можете удалять свои сообщения
Вы не можете голосовать в опросах
Вы не можете прикреплять файлы к сообщениям
Вы не можете скачивать файлы