Сегодня идет свободное скачивание без начисления Download

Кости / Bones (Сезон 7, серии 01-13 из 13) (2011) [720p] WEB-DLRip (ТВ-3) [обновляемая]

Ответить на тему
 
Автор
Сообщение

Varius ®

Пол:

Стаж: 8 лет 4 месяца

Сообщений: 2678

Откуда: Hell

Торрент-статистика

Пост 22-Май-2012 04:34

[Цитировать]

Кости / Bones (Сезон 7, серии 01-08 из 13) (2011) WEB-DLRip (Дубляж ТВ-3)- Русское название: Кости
Оригинальное название: Bones
Год выхода: 2011
Производство: США, Fox
Жанр: Драма, детектив
Сезон: 7
Серии: 01-13 из 13 серий
Продолжительность: ~ 00:44:00 мин серия
Перевод: Профессиональный (полное дублирование) - /ТВ3/
Режиссер: Стивен ДеПол, Йен Тойнтон, Аллен Крокер, Дэвид Бореаназ.....
В ролях: Эмили Дешанель, Дэвид Бореаназ, Микаэла Конлин, Тамара Тэйлор, Томас Джозеф Тайн, Джон Фрэнсис Дэлэй, Эрик Миллеган и др.
Описание фильма:
Главная героиня сериала – доктор Темперанс Бреннан, блестящий судебный антрополог работает на ФБР, а в свободное время пишет романы. Темперанс владеет особым методом идентификации останков, что позволяет ей докапываться до истины и раскрывать преступления даже тогда, когда обычные методы криминалистики уже не действуют. В буквальном смысле слова она находит «ключи» к преступлениям в костях жертвы. Именно поэтому, возможно, ее часто привлекают к расследованию нераскрытых дел или дел с большим сроком давности. Очень часто Темперанс приходится работать в паре со специальным агентом того же бюро Сили Бутом из отдела по расследованию убийств. Бут, бывший армейский снайпер, весьма скептический относится и к науке, и к ее представителям, презрительно называя их «очкарики». Его точка зрения на раскрытие преступлений весьма проста: узнать правду можно лишь используя старомодные методы ведения дел, т.е. «работая» с теми, кто жив, – свидетелями и подозреваемыми-
Премьера (мир): 13 сентября 2005-Субтитры: нет
Качество видео: WEB-DLRip
Видеокодек: MPEG 4 AVC/H.264
Битрейт видео: ~ 3953 Кбит/сек
Размер кадра: 1280х720(1.77:1)
Аудио:
Аудио 1: Русский: 48 kHz, 2 (L,R) ch, ~192.00 kbps avg
Аудио 2: Английский: 48 kHz, 3/2 (L,C,R,l,r) + LFE ch, ~384.00 kbps avg

MediaInfo 0.7.54

Format : Matroska
Format version : Version 2
File size : 1.41 GiB
Duration : 43mn 34s
Overall bit rate : 4 632 Kbps
Movie name : The.Memories.In.The.Shallow.Grave - Marchelush
Encoded date : UTC 2012-05-21 14:55:30
Writing application : mkvmerge v5.2.0 ('I can't explain') built on Dec 18 2011 18:12:03
Writing library : libebml v1.2.3 + libmatroska v1.3.0
Attachment : Yes
Video
ID : 1
Format : AVC
Format/Info : Advanced Video Codec
Format profile : [url=mailto:High@L3.1]High@L3.1[/url]
Format settings, CABAC : No
Format settings, ReFrames : 2 frames
Codec ID : V_MPEG4/ISO/AVC
Duration : 43mn 34s
Bit rate : 3 964 Kbps
Width : 1 280 pixels
Height : 720 pixels
Display aspect ratio : 16:9
Frame rate : 23.976 fps
Color space : YUV
Chroma subsampling : 4:2:0
Bit depth : 8 bits
Scan type : Progressive
Bits/(Pixel*Frame) : 0.179
Stream size : 1.21 GiB (86%)
Language : English
Default : Yes
Forced : No
Color primaries : BT.709-5, BT.1361, IEC 61966-2-4, SMPTE RP177
Transfer characteristics : BT.709-5, BT.1361
Matrix coefficients : BT.709-5, BT.1361, IEC 61966-2-4 709, SMPTE RP177
Audio #1
ID : 2
Format : AC-3
Format/Info : Audio Coding 3
Mode extension : CM (complete main)
Codec ID : A_AC3
Duration : 43mn 34s
Bit rate mode : Constant
Bit rate : 192 Kbps
Channel(s) : 2 channels
Channel positions : Front: L R
Sampling rate : 48.0 KHz
Bit depth : 16 bits
Compression mode : Lossy
Stream size : 59.8 MiB (4%)
Title : TB3
Language : Russian
Default : Yes
Forced : No
Audio #2
ID : 3
Format : AC-3
Format/Info : Audio Coding 3
Mode extension : CM (complete main)
Codec ID : A_AC3
Duration : 43mn 34s
Bit rate mode : Constant
Bit rate : 384 Kbps
Channel(s) : 6 channels
Channel positions : Front: L C R, Side: L R, LFE
Sampling rate : 48.0 KHz
Bit depth : 16 bits
Compression mode : Lossy
Stream size : 120 MiB (8%)
Language : English
Default : No
Forced : No

Знаете ли Вы, что...

Литературной основой персонажей сериала является цикл детективных романов Кэти Райкс, главной героиней которых является доктор Бреннан.
В конце 15 серии первого сезона Бреннан отдает Буту дело своих пропавших родителей. На фотографии, которую рассматривает Бут, сняты мать и отец Эмили Дешанель, актрисы играющей главную роль. Это оператор Калеб Дешанель и актриса Мери Джо Дешанель.
Второе имя Анджелы Монтенегро — «Pearly Gates» — является названием гитары, принадлежащей участнику ZZ Top Билли Гиббонсу, играющему отца Анджелы в некоторых эпизодах.
Джоэль Мур, играющий Колина Фишера, выигрывает 3 билета на премьеру фильма «Аватар». Мур играет в «Аватаре» одну из ключевых ролей.
В 10 эпизоде 5 сезона троюродную сестру доктора Бреннан играет настоящая сестра Эмили Дешанель, Зоуи.

Внимание! Раздача ведётся путём добавления новых серий!

Внимание! Раздача ведётся путём добавления новых серий; при каждом добавлении создётся новый торрент. Чтобы начать докачку новой серии, пользователям необходимо сделать следующее:
(1) остановить скачивание,
(2) удалить старый торрент у себя из клиента (старые серии удалять не надо),
(3) скачать новый торрент и запустить его у себя в клиенте вместо старого, при этом указать клиенту путь в старую папку куда и должно происходить скачивание новых серий.
Ваш клиент при этом должен произвести хеширование (проверку) старой папки (если не производит сам - помогите ему сделать это), и будет докачивать только те серии которых у вас ещё нет. Старые серии при этом не удаляются, а продолжают раздаваться!
Eсли вы уже удалили старые серии, то предотвратить повторную закачку старых серий можно, отжав галочку в соответсвующих местах при запуске нового торрента.
Скриншоты:

       
       

Время раздачи: круглогодично

_________________

Создавая "Новую папку", не считайте себя Создателем - это право Вам дано Админом




Последний раз редактировалось: Varius (2012-05-24 18:59), всего редактировалось 1 раз
Вне форума [Профиль] [ЛС]
Похожие темы
Форум Тема Автор Торрент Отв. Посл. сообщение
./templates/default/images/folder_dl.gif Фантастика, фэнтези, ужасы, мистика Константин Костин | Робинзоны космоса (2018) [FB2] }{@R0N
2 | 0

0 | 137

6

2018-07-09 21:42
}{@R0N Последнее
./templates/default/images/folder_dl.gif Фантастика, фэнтези, ужасы, мистика Константин Костин | Невидимое Солнце (2018) [FB2] }{@R0N
1 | 0

0 | 140

6

2018-07-09 21:43
}{@R0N Последнее
Показать сообщения:    
Ответить на тему

Текущее время: Сегодня 20:50

Часовой пояс: GMT + 3



Вы не можете начинать темы
Вы не можете отвечать на сообщения
Вы не можете редактировать свои сообщения
Вы не можете удалять свои сообщения
Вы не можете голосовать в опросах
Вы не можете прикреплять файлы к сообщениям
Вы не можете скачивать файлы