Today is a free download without charge Download

Город 312 - Star-Hit - Звёздная коллекция (2010) [FLAC|image + .cue]<Pop Rock>

Reply to topic
 
Author
Message

NarDok ®

Longevity: 9 years 8 months

Posts: 914

Торрент-статистика

Post 27-Jul-2015 22:13

[Quote]

Город 312 - Star-Hit - Звёздная коллекция - Год: 2010
Жанр: Pop Rock
Лейбл: CD Land
Каталог #: CDLREC 5342010 CD
Продолжительность: 01:02:17
Кодек: FLAC
Битрейт: Lossless
Тип рипа: image + .cue
Сканы: Complete set
Треклист:
01. 213 дорог [2:50]
02. Останусь [3:41]
03. Вне зоны доступа [3:32]
04. Весна [2:58]
05. Обернись [3:41]
06. Девочка, которая хотела счастья [3:31]
07. Фонари [2:54]
08. Город-Рассвет [3:44]
09. Небо в алмазах [3:34]
10. Сквозняк [4:14]
11. Город-Точка [3:21]
12. Сокол [3:35]
13. Береги себя [3:14]
14. Автокатастрофа [3:38]
15. По средствам [3:43]
16. Территория [3:04]
17. Космос [3:18]
18. Город 312 [3:43]

Отчёт ЕАС&#58;

Код:
Exact Audio Copy V1.0 beta 3 from 29. August 2011
Отчёт EAC об извлечении, выполненном 8. ноября 2014, 8:48
Город 312 / Серия «Star-Hit. Новое и лучшее». «Звёздная коллекция»
Дисковод: Optiarc DVD RW AD-5200S   Adapter: 3  ID: 0
Режим чтения                 : Достоверность
Использование точного потока : Да
Отключение кэша аудио        : Да
Использование указателей C2  : Нет
Коррекция смещения при чтении                     : 48
Способность читать области Lead-in и Lead-out     : Нет
Заполнение пропущенных сэмплов тишиной            : Да
Удаление блоков с тишиной в начале и конце        : Нет
При вычислениях CRC использовались нулевые сэмплы : Да
Интерфейс                                         : Установленный внешний ASPI-интерфейс
Выходной формат          : Пользовательский кодировщик
Выбранный битрейт        : 768 kBit/s
Качество                 : Высокий
Добавление ID3-тега      : Нет
Утилита сжатия           : C:\Program Files\Exact Audio Copy\FLAC\FLAC.EXE
Дополнительные параметры : -6 -V -T "ARTIST=%artist%" -T "TITLE=%title%" -T "ALBUM=%albumtitle%" -T "DATE=%year%" -T "TRACKNUMBER=%tracknr%" -T "GENRE=%genre%" -T "COMMENT=%comment%" -T "BAND=%albuminterpret%" -T "ALBUMARTIST=%albuminterpret%" -T "COMPOSER=%composer%" %haslyrics%--tag-from-file=LYRICS="%lyricsfile%"%haslyrics% -T "DISCNUMBER=%cdnumber%" -T "TOTALDISCS=%totalcds%" -T "TOTALTRACKS=%numtracks%" %hascover%--picture="%coverfile%"%hascover% %source% -o %dest%
TOC извлечённого CD
     Трек |   Старт  | Длительность | Начальный сектор | Конечный сектор
    ---------------------------------------------------------------------
       1  |  0:00.00 |    2:50.16   |           0      |      12765
       2  |  2:50.16 |    3:41.23   |       12766      |      29363
       3  |  6:31.39 |    3:31.38   |       29364      |      45226
       4  | 10:03.02 |    2:58.01   |       45227      |      58577
       5  | 13:01.03 |    3:41.06   |       58578      |      75158
       6  | 16:42.09 |    3:31.11   |       75159      |      90994
       7  | 20:13.20 |    2:54.35   |       90995      |     104079
       8  | 23:07.55 |    3:44.08   |      104080      |     120887
       9  | 26:51.63 |    3:34.26   |      120888      |     136963
      10  | 30:26.14 |    4:14.23   |      136964      |     156036
      11  | 34:40.37 |    3:21.16   |      156037      |     171127
      12  | 38:01.53 |    3:35.21   |      171128      |     187273
      13  | 41:36.74 |    3:13.48   |      187274      |     201796
      14  | 44:50.47 |    3:37.48   |      201797      |     218119
      15  | 48:28.20 |    3:43.02   |      218120      |     234846
      16  | 52:11.22 |    3:04.23   |      234847      |     248669
      17  | 55:15.45 |    3:18.28   |      248670      |     263547
      18  | 58:33.73 |    3:42.66   |      263548      |     280263
Характеристики диапазона извлечения и сообщения об ошибках
Выбранный диапазон
     Имя файла F:\LOSSLESS\Город 312 - 2010 - Серия «Star-Hit. Новое и лучшее». «Звёздная коллекция»\Город 312 - Серия «Star-Hit. Новое и лучшее». «Звёздная коллекция».wav
     Пиковый уровень 98.8 %
     Скорость извлечения 4.2 X
     Качество диапазона 100.0 %
     CRC теста D16CFDDE
     CRC копии D16CFDDE
     Копирование... OK
Ошибок не произошло
AccurateRip: сводка
Трек  1  : извлечено точно (доверие 1)  [D3C93EBF]  (AR v2)
Трек  2  : извлечено точно (доверие 1)  [F27AC31E]  (AR v2)
Трек  3  : извлечено точно (доверие 1)  [4A02178B]  (AR v2)
Трек  4  : извлечено точно (доверие 1)  [1E0EDAF5]  (AR v2)
Трек  5  : извлечено точно (доверие 1)  [C5ECF25F]  (AR v2)
Трек  6  : извлечено точно (доверие 1)  [838BD726]  (AR v2)
Трек  7  : извлечено точно (доверие 1)  [D7362177]  (AR v2)
Трек  8  : извлечено точно (доверие 1)  [CB8D337E]  (AR v2)
Трек  9  : извлечено точно (доверие 1)  [E3C271FD]  (AR v2)
Трек 10  : извлечено точно (доверие 1)  [F5CE2B39]  (AR v2)
Трек 11  : извлечено точно (доверие 1)  [428422C9]  (AR v2)
Трек 12  : извлечено точно (доверие 1)  [6959C190]  (AR v2)
Трек 13  : извлечено точно (доверие 1)  [0CE068E6]  (AR v2)
Трек 14  : извлечено точно (доверие 1)  [95261F85]  (AR v2)
Трек 15  : извлечено точно (доверие 1)  [AA007DA9]  (AR v2)
Трек 16  : извлечено точно (доверие 1)  [5025E07A]  (AR v2)
Трек 17  : извлечено точно (доверие 1)  [84D91A2E]  (AR v2)
Трек 18  : извлечено точно (доверие 1)  [1EA07F72]  (AR v2)
Все треки извлечены точно
Конец отчёта
==== Контрольная сумма отчёта 576979DD18C2C5EEEF17DE0072CF200A21CB29983C3C734FABE89F8C8BDE3EF3 ====

Отчёт auCDtect Task manager&#58;

Код:
-----------------------
DON'T MODIFY THIS FILE
-----------------------
PERFORMER: auCDtect Task Manager, ver. 1.6.0 RC1 build 1.6.0.1
Copyright (c) 2008-2010 y-soft. All rights reserved
http://y-soft.org
ANALYZER: auCDtect: CD records authenticity detector, version 0.8.2
Copyright (c) 2004 Oleg Berngardt. All rights reserved.
Copyright (c) 2004 Alexander Djourik. All rights reserved.
FILE: Город 312 - Star-Hit - Звёздная коллекция.flac
  Size: 471889097 Hash: 2F88EF9261364E941E5A4DF072B5D7E1 Accuracy: -m0
  Conclusion: CDDA 100%
  Signature: 7C60F2C18C5A23C29465C77FBFE5FFD2016CBE08

_________________

Other forum [Profile] [PM]
Similar theme
Forum Topic Author Torrent Replies Last Post
./templates/default/images/folder_dl.gif Приключения и квесты Small Town Terrors 3 Galdors Bluff Sammleredition / Террор в городке 3 Блеф Галдора Коллекционное издание [P] [RUS] (2015) Omen
1 | 0

0 | 2117

24

2015-06-13 15:00
Omen Latest
Display posts from previous:    
Reply to topic

The time now is: Today 03:34

All times are GMT + 3 Hours



You cannot post new topics in this forum
You cannot reply to topics in this forum
You cannot edit your posts in this forum
You cannot delete your posts in this forum
You cannot vote in polls in this forum
You cannot attach files in this forum
You cannot download files in this forum