Сегодня идет свободное скачивание без начисления Download

Аркадий Райкин. Редкие записи (1-2 части из 2) (1960-1967) DVDRip

Ответить на тему
 
Автор
Сообщение

Omen ®

Стаж: 5 лет 6 месяцев

Сообщений: 186946

Торрент-статистика

Пост 17-Май-2012 23:24

[Цитировать]

Аркадий Райкин. Редкие записи -
Русское название: Аркадий Райкин. Редкие записи
Оригинальное название: Аркадий Райкин. Редкие записи
Год выпуска: 1960-1967
Производство: СССР, Гостелерадиофонд
Жанр: Комедия, сатира, телеспектакль, фильм-концерт
Перевод: Оригинальный (русский)
Субтитры: Отсутствуют
Райкин Аркадий Исаакович (11 (24) октября 1911, Рига — 17 декабря 1987, Москва) — советский эстрадный и театральный актёр, режиссёр, сценарист, юморист, Народный артист СССР (1968), Герой Социалистического Труда, лауреат Ленинской премии (1980).
Миниатюры и спектакли А. И. Райкина отличались остротой (сатира), особенно в сравнении с другими артистами эстрады того времени, но в то же время всегда были корректны и интеллигентны.
Аркадий Райкин был легендой своего времени и своей страны. Миллионы людей смеялись и плакали, радовались и огорчались вместе с героями Райкина, узнавали его персонажей в реальной жизни. Здесь собрано только малая часть его творчества - его великая часть!
Продолжительность: 03:55:26 (1-ая часть), 03:40:44 (2-ая часть)
Качество видео: DVDRip
Видеокодек: DivX 5
Битрейт видео: ~ 1450 Кбит/сек
Размер кадра: 720x544
Аудио: Русский, AC3, 2 ch, 256 Кбит/с

Аркадий Райкин: Редкие записи, часть 1-я (1960) DVDRip


Русское название: Аркадий Райкин: Редкие записи, часть 1-я
Оригинальное название: Аркадий Райкин: Редкие записи, часть 1-я
Год выпуска: 1960
Производство: СССР, Гостелерадиофонд
Жанр: Комедия, сатира, телеспектакль, фильм-концерт
Перевод: Оригинальный (русский)
Субтитры: Отсутствуют
Описание:
  • На сон грядущий (1960 г.)
    В исполнении артистов Государственного театра миниатюр под руководством А. Райкина "На сон грядущий".
  • В субботу вечером (1987 г.)
    Фрагменты юбилейного вечера А. Райкина. Фрагменты вечера, посвященные 75-летию со дня рождения Народного артиста СССР А. И. Райкина из Государственного театра эстрады.
    Ведущий: А. Ширвиндт
  • Монолог "Смеяться, право, не грешно"
    Эстрадная миниатюра М. Гридина и Г. Рябкина "Смеяться, право, не грешно" в исполнении А. Райкина.
  • Нужные вещи
    Интермедия "Нужные вещи" в исполнении А. Райкина.
  • Сцена "Пивная"
    Сатирическая сценка "Пивная" М. Жвавнецкого в исполнении А. Райкина.
  • Детали и мировые проблемы
    Миниатюра М. Жванецкого "Детали и мировые проблемы" в исполнении А. Райкина (Сцена из спектакля "Люди и манекены" Ленинградского театра миниатюр).
  • Лекция о любви и дружбе
    Интермедия "Лекция о любви и дружбе" в исполнении А. Райкина.
Продолжительность: 03:55:26
Качество видео: DVDRip
Видеокодек: DivX
Битрейт видео: 1401 Кбит/сек
Размер кадра: 720x544
Аудио: Русский, AC3, 2 ch, 256 Кбит/с

MediaInfo

Код:
Общее
Полное имя                               : F:\Раздачи\Раздачи Видео\Аркадий Райкин. Редкие записи (1-2 части из 2) (1960-1967) DVDRip\Аркадий Райкин Редкие записи, часть 1-я (1960) DVDRip.avi
Формат                                   : AVI
Формат/Информация                        : Audio Video Interleave
Профиль формата                          : OpenDML
Размер файла                             : 2,74 Гбайт
Продолжительность                        : 3 ч. 55 м.
Общий поток                              : 1665 Кбит/сек
Программа кодирования                    : VirtualDubMod 1.5.4.1 (build 2178/release)
Библиотека кодирования                   : VirtualDubMod build 2178/release
Видео
Идентификатор                            : 0
Формат                                   : MPEG-4 Visual
Параметр BVOP формата                    : 1
Параметр QPel формата                    : Нет
Параметр GMC формата                     : Без точки перехода
Параметр матрицы формата                 : Default (H.263)
Режим смешивания                         : Сжатый битовый поток
Идентификатор кодека                     : DX50
Идентификатор кодека/Подсказка           : DivX 5
Продолжительность                        : 3 ч. 55 м.
Битрейт                                  : 1401 Кбит/сек
Ширина                                   : 720 пикселей
Высота                                   : 544 пикселя
Соотношение сторон                       : 4:3
Частота кадров                           : 25,000 кадров/сек
Цветовое пространство                    : YUV
Субдискретизация насыщенности            : 4:2:0
Битовая глубина                          : 8 бит
Тип развёртки                            : Прогрессивная
Метод сжатия                             : С потерями
Бит/(Пиксели*Кадры)                      : 0.143
Размер потока                            : 2,30 Гбайт (84%)
Библиотека кодирования                   : DivX 6.8.0 (UTC 2007-12-04)
Аудио
Идентификатор                            : 1
Формат                                   : AC-3
Формат/Информация                        : Audio Coding 3
Расширение режима                        : CM (complete main)
Параметр Endianness формата              : Big
Идентификатор кодека                     : 2000
Продолжительность                        : 3 ч. 55 м.
Вид битрейта                             : Постоянный
Битрейт                                  : 256 Кбит/сек
Каналы                                   : 2 канала
Расположение каналов                     : Front: L R
Частота                                  : 48,0 КГц
Битовая глубина                          : 16 бит
Метод сжатия                             : С потерями
Размер потока                            : 431 Мбайт (15%)
Выравнивание                             : Разделение по промежуткам
Продолжительность промежутка             : 96  мс. (2,40 видеокадра)
Время предзагрузки промежутка            : 96  мс.
Скриншоты:
         
         

Аркадий Райкин: Редкие записи, часть 2-я (1967) DVDRip


Русское название: Аркадий Райкин: Редкие записи, часть 2-я
Оригинальное название: Аркадий Райкин: Редкие записи, часть 2-я
Год выпуска: 1967
Производство: СССР, Гостелерадиофонд
Жанр: Комедия, сатира, телеспектакль, фильм-концерт
Перевод: Оригинальный (русский)
Субтитры: Отсутствуют
Описание:
  • Адрес: Театр (1967 г.)
    Фильм-концерт с участием Аркадия Райкина и артистов Ленинградского театра эстрады
  • Аркадий Райкин (1975 г.)
    О творчестве народного артиста СССР Аркадия Исааковича Райкина
  • Народный артист А. Райкин (1974 г.)
    О творчестве народного артиста СССР Аркадия Райкина
  • Отдохнули
    Интермедия "Отдохнули" в исполнении А. Райкина
  • Сцена "Страхкасса"
    Сценка "Страхкасса" в исполнении артистов эстрады А. Райкина и В. Ляховицкого
Продолжительность: 03:40:44
Качество видео: DVDRip
Видеокодек: DivX
Битрейт видео: 1511 Кбит/сек
Размер кадра: 720x544
Аудио: Русский, AC3, 2 ch, 256 Кбит/с

MediaInfo

Код:
Общее
Полное имя                               : F:\Раздачи\Раздачи Видео\Аркадий Райкин. Редкие записи (1-2 части из 2) (1960-1967) DVDRip\Аркадий Райкин Редкие записи, часть 2-я (1967) DVDRip.avi
Формат                                   : AVI
Формат/Информация                        : Audio Video Interleave
Профиль формата                          : OpenDML
Размер файла                             : 2,74 Гбайт
Продолжительность                        : 3 ч. 40 м.
Общий поток                              : 1775 Кбит/сек
Программа кодирования                    : VirtualDubMod 1.5.4.1 (build 2178/release)
Библиотека кодирования                   : VirtualDubMod build 2178/release
Видео
Идентификатор                            : 0
Формат                                   : MPEG-4 Visual
Параметр BVOP формата                    : Нет
Параметр QPel формата                    : Нет
Параметр GMC формата                     : Без точки перехода
Параметр матрицы формата                 : Default (H.263)
Идентификатор кодека                     : DX50
Идентификатор кодека/Подсказка           : DivX 5
Продолжительность                        : 3 ч. 40 м.
Битрейт                                  : 1511 Кбит/сек
Ширина                                   : 720 пикселей
Высота                                   : 544 пикселя
Соотношение сторон                       : 4:3
Частота кадров                           : 25,000 кадров/сек
Цветовое пространство                    : YUV
Субдискретизация насыщенности            : 4:2:0
Битовая глубина                          : 8 бит
Тип развёртки                            : Прогрессивная
Метод сжатия                             : С потерями
Бит/(Пиксели*Кадры)                      : 0.154
Размер потока                            : 2,33 Гбайт (85%)
Библиотека кодирования                   : DivX 5.1.1 (Maupiti) (UTC 2003-11-19)
Аудио
Идентификатор                            : 1
Формат                                   : AC-3
Формат/Информация                        : Audio Coding 3
Расширение режима                        : CM (complete main)
Параметр Endianness формата              : Big
Идентификатор кодека                     : 2000
Продолжительность                        : 3 ч. 40 м.
Вид битрейта                             : Постоянный
Битрейт                                  : 256 Кбит/сек
Каналы                                   : 2 канала
Расположение каналов                     : Front: L R
Частота                                  : 48,0 КГц
Битовая глубина                          : 16 бит
Метод сжатия                             : С потерями
Размер потока                            : 404 Мбайт (14%)
Выравнивание                             : Разделение по промежуткам
Продолжительность промежутка             : 96  мс. (2,40 видеокадра)
Время предзагрузки промежутка            : 96  мс.
Скриншоты:
         
         
-
Вне форума [Профиль] [ЛС]
Показать сообщения:    
Ответить на тему

Текущее время: Сегодня 16:49

Часовой пояс: GMT + 3



Вы не можете начинать темы
Вы не можете отвечать на сообщения
Вы не можете редактировать свои сообщения
Вы не можете удалять свои сообщения
Вы не можете голосовать в опросах
Вы не можете прикреплять файлы к сообщениям
Вы не можете скачивать файлы