Сегодня идет свободное скачивание без начисления Download

Тайная прогулка (Валерий Михайловский) [1985 г., Боевик, военный, DVDRip]

Ответить на тему
 
Автор
Сообщение

cergo ®

Пол:

Стаж: 6 лет 6 месяцев

Сообщений: 87

Нарушений: 2

Откуда: Стерлитамак-Сити

Торрент-статистика

Пост 17-Май-2012 19:01

[Цитировать]

Тайная прогулка -Год выпуска: 1985
Страна: СССР
Жанр: Боевик, военный
Продолжительность: 83 мин. / 01:23
Перевод: Не требуется-Режиссер: Валерий Михайловский
Сценарий: Ефим Кленов, Шаршен Усубалиев-Премьера в мире: 26 июля 1985
-
В ролях: Мирдза Мартинсоне, Мурат Мамбетов, Сергей Варчук, Андрей Троицкий, Михаил Розанов, Андрей Подошьян, Кирилл Лавров, Борис Новиков, Геннадий Фролов (II), Иван Агафонов-Описание: Великая Отечественная война.Действия фильма происходят в сентябре 1942 года. Советское командование Западного фронта намеревается перебросить в тыл врага разведчицу Ниеле, ранее жившую в Берлине, и с помощью немецкого пленного офицера, внука одного из военноначальников рейха, выйти на генерала фон Герлица. Ради этой цели нужно пожертвовать всем…-Качество: DVDRip
Формат: AVI
Видео кодек: DivX
Аудио кодек: MPEG Audio
Видео: 700x378 (1.94:1), 25 fps, DivX Codec 4.x ~1790 kbps avg, 0.28 bit/pixel
Аудио: 48 kHz, MPEG Layer 3, 2 ch, ~192.00 kbps avg-

MediaInfo

Формат : AVI
Формат/Информация : Audio Video Interleave
Размер файла : 1010 Мбайт
Продолжительность : 1 ч. 18 м.
Общий поток : 1805 Кбит/сек
Видео
Идентификатор : 0
Формат : MPEG-4 Visual
Профиль формата : Simple@L1
Параметр BVOP формата : Нет
Параметр QPel формата : Нет
Параметр GMC формата : Без точки перехода
Параметр матрицы формата : Default (H.263)
Идентификатор кодека : DIVX
Идентификатор кодека/Информация : Project Mayo
Идентификатор кодека/Подсказка : DivX 4
Продолжительность : 1 ч. 18 м.
Битрейт : 1600 Кбит/сек
Ширина : 700 пикселей
Высота : 378 пикселей
Соотношение сторон : 1,944
Частота кадров : 25,000 кадров/сек
Цветовое пространство : YUV
Субдискретизация насыщенности : 4:2:0
Битовая глубина : 8 бит
Тип развёртки : Прогрессивная
Метод сжатия : С потерями
Бит/(Пиксели*Кадры) : 0.254
Размер потока : 896 Мбайт (89%)
Библиотека кодирования : avc2.0.11.1110
Аудио
Идентификатор : 1
Формат : MPEG Audio
Версия формата : Version 1
Профиль формата : Layer 3
Режим : Joint stereo
Идентификатор кодека : 55
Идентификатор кодека/Подсказка : MP3
Продолжительность : 1 ч. 18 м.
Вид битрейта : Постоянный
Битрейт : 192 Кбит/сек
Каналы : 2 канала
Частота : 48,0 КГц
Метод сжатия : С потерями
Размер потока : 107 Мбайт (11%)
Выравнивание : Соединение по промежуткам
Продолжительность промежутка : 24 мс. (0,60 видеокадр)
Время предзагрузки промежутка : 24 мс.

Скриншоты

           

_________________
Подпись отключена за нарушение правил форума
Вне форума [Профиль] [ЛС]
Похожие темы
Форум Тема Автор Торрент Отв. Посл. сообщение
./templates/default/images/folder_dl.gif Приключения и квесты Mystery Trackers: Blackrow\'s Secret Collector\'s Edition / Охотники за тайнами. Загадка рода Блэкроу. Коллекционное издание [P] [RUS / ENG] (2014) Omen
2 | 0

0 | 1500

24

2015-06-06 00:09
Omen Последнее
./templates/default/images/folder_dl.gif Приключения, детектив, боевик, триллер Игорь Орлов | Тайна Графа (2015) [MP3] Omen
1 | 0

0 | 1503

13

2015-07-29 15:24
Omen Последнее
Показать сообщения:    
Ответить на тему

Текущее время: Сегодня 02:21

Часовой пояс: GMT + 3



Вы не можете начинать темы
Вы не можете отвечать на сообщения
Вы не можете редактировать свои сообщения
Вы не можете удалять свои сообщения
Вы не можете голосовать в опросах
Вы не можете прикреплять файлы к сообщениям
Вы не можете скачивать файлы