Сегодня идет свободное скачивание без начисления Download

Великолепный век / Muhtesem Yuzyil / Сезон: 2 / Серии: 25-63 (Дурул Тайлан, Ягмур Тайлан)[2011 г., Драма, мелодрама, военный, биография, история, SATRip] DUB (Домашний)

Ответить на тему
 
Автор
Сообщение

Omen ®

Стаж: 5 лет 9 месяцев

Сообщений: 184433

Торрент-статистика

Пост 15-Май-2012 16:09

[Цитировать]

Великолепный век
Muhtesem Yuzyil
-- Год выпуска: 2011
Страна: Турция
Жанр: Драма, мелодрама, военный, биография, история
Продолжительность: ~ 100 минут
Перевод: Профессиональный (полное дублирование) - Домашний
Субтитры: Нет
Режиссёр: Дурул Тайлан, Ягмур Тайлан-В ролях: Небахат Чехре, Окан Ялабик, Сельма Эргеч, Халит Эргенч, Филиз Ахмет и др.-Описание: Сериал повествует о правлении султана Сулеймана Великолепного и его страстной любви к украинской красавице Роксалане. Согласно канонам исламской веры, султан мог иметь четырех законных жен и столько наложниц, сколько сможет содержать. При этом, дети первой жены становились преемниками престола. Роксолана еще девочкой была захвачена в плен и переправлена в Стамбул, где визирь Ибрагим-паша подарил ее султану. Путем интриг, подкупа и умелого обольщения украинская красавица стала женой султана. После принятия ислама она получила имя Хюррем. Сулейман возвел Роксолану в ранг главной жены, и называл ее не иначе как «милой сердцу». Роксолана была не только искусной любовницей, но и умной, интересной собеседницей, хорошо разбирающейся в искусстве и государственных делах. Чтобы реализовать свои амбиции в султанате, Хюррем устраняла всех, кто мог ей в этом помешать. В основу сценария легло несколько исторических романов и средневековых документов.-Качество: SATRip
Формат: AVI
Видео кодек: XviD
Аудио кодек: MP3
Видео: 704x400 (16:9), 25.000 fps, ~1700 kbps, ~0.250 bit/pixel
Аудио Rus: 48 kHz, 2 ch, ~128 kbps |Домашний|-Релиз:
Озвучка: Домашний
Звук предоставил: Taled
Подготовка видео: Baggio
Работа со звуком: Baggio
Постер: Vortex- -

Скриншоты

     
     
     
     

MediaInfo

Код:
Общее
Полное имя : F:\Muhtesem.Yuzyil.s02.NewStudio\Muhtesem.Yuzyil.s02e25.SATRip.NewStudio.TV.avi
Формат : AVI
Формат/Информация : Audio Video Interleave
Размер файла : 1,37 Гбайт
Продолжительность : 1 ч. 44 м.
Общий поток : 1875 Кбит/сек
Программа кодирования : VirtualDubMod 1.5.10.2 (build 2540/release)
Библиотека кодирования : VirtualDubMod build 2540/release
Видео
Идентификатор : 0
Формат : MPEG-4 Visual
Профиль формата : Advanced Simple@L5
Параметр BVOP формата : 2
Параметр QPel формата : Нет
Параметр GMC формата : Без точки перехода
Параметр матрицы формата : Default (MPEG)
Идентификатор кодека : XVID
Идентификатор кодека/Подсказка : XviD
Продолжительность : 1 ч. 44 м.
Битрейт : 1738 Кбит/сек
Ширина : 704 пикс.
Высота : 400 пикс.
Соотношение сторон : 16:9
Частота кадров : 25,000 кадр/сек
Цветовое пространство : YUV
Подвыборка цветности : 4:2:0
Битовая глубина : 8 бит
Тип развёртки : Прогрессивная
Метод сжатия : С потерями
Бит/(Пиксели*Кадры) : 0.247
Размер потока : 1,26 Гбайт (93%)
Библиотека кодирования : XviD 64
Аудио
Идентификатор : 1
Формат : MPEG Audio
Версия формата : Version 1
Профиль формата : Layer 3
Режим : Joint stereo
Расширение режима : MS Stereo
Идентификатор кодека : 55
Идентификатор кодека/Подсказка : MP3
Продолжительность : 1 ч. 44 м.
Вид битрейта : Постоянный
Битрейт : 128 Кбит/сек
Каналы : 2 канала
Частота : 48,0 КГц
Метод сжатия : С потерями
Размер потока : 95,4 Мбайт (7%)
Выравнивание : Соединение по промежуткам
Продолжительность промежутка : 40 мс. (1,00 видеокадр)
Время предзагрузки промежутка : 504 ms
Библиотека кодирования : LAME3.90.3ЄЄЄ

Внимание! Раздача ведётся путём добавления новых серий.

Внимание! Раздача ведётся путём добавления новых серий; при каждом добавлении создётся новый торрент. Чтобы начать докачку новой серии, пользователям необходимо сделать следующее:
  • Остановить скачивание.
  • Удалить старый торрент у себя из клиента (старые серии удалять не надо).
  • Скачать новый торрент и запустить его у себя в клиенте вместо старого, при этом указать клиенту путь в старую папку куда и должно происходить скачивание новых серий.
Ваш клиент при этом должен произвести хеширование (проверку) старой папки (если не производит сам - помогите ему сделать это), и будет докачивать только те серии которых у вас ещё нет. Старые серии при этом не удаляются, а продолжают раздаваться!
Eсли вы уже удалили старые серии, то предотвратить повторную закачку старых серий можно, отжав галочку в соответсвующих местах при запуске нового торрента. По возможности, желательно не удалять старые серии как можно дольше чтобы релизёр не столько продолжал раздавать старые серии, а смог сконцентрироваться на новых.
Как закачать отдельный файл из торрента или докачать ранее пропущенные файлы торрента!
Вне форума [Профиль] [ЛС]
Похожие темы
Форум Тема Автор Торрент Отв. Посл. сообщение
./templates/default/images/folder_dl.gif Фантастика, фэнтези, ужасы, мистика Олег Дивов | Великий Дракон (2015) [FB2] Omen
1 | 0

0 | 978

7

2015-03-09 13:21
Omen Последнее
./templates/default/images/folder_dl.gif Фантастика, фэнтези, ужасы, мистика Ник Перумов - Летописи Хьерварда - Воин великой тьмы [Marg@don, ЛИ, МР3, 2015] Marg@don
1 | 0

2 | 1846

5

2015-10-30 21:51
Marg@don Последнее
./templates/default/images/folder_dl.gif Фантастика, фэнтези, ужасы, мистика Аластер Рейнольдс | Великая стена (2017) [MP3] }{@R0N
1 | 0

0 | 3193

7

2017-12-02 14:50
}{@R0N Последнее
Показать сообщения:    
Ответить на тему

Текущее время: Сегодня 17:29

Часовой пояс: GMT + 3



Вы не можете начинать темы
Вы не можете отвечать на сообщения
Вы не можете редактировать свои сообщения
Вы не можете удалять свои сообщения
Вы не можете голосовать в опросах
Вы не можете прикреплять файлы к сообщениям
Вы не можете скачивать файлы