Today is a free download without charge Download

(Pop) Hi-Fi - 8 альбомов - 1998-2008, APE;FLAC (image+.cue), lossless

Reply to topic
 
Author
Message

Koralina ®

Longevity: 9 years 2 months

Posts: 994

Location: Lithuania

Торрент-статистика

Post 14-May-2012 22:10

[Quote]

Hi-Fi - 8 альбомов - 1998-2008 Год выпуска: 1998-2008
Страна: Россия
Жанр: Pop
Лейбл издания: Союз
Продолжительность: 04.03.33
Формат: APE, FLAC
Битрейт аудио: Lossless
Тип рипа: image+.cue
Наличие сканов в содержимом раздачи: да

1998г. Первый контакт

Страна-производитель диска: Russia
Год издания диска: 1998
Издатель (лейбл): Союз
Номер по каталогу: RR-001-CD
Аудио кодек: APE
Тип рипа: image+.cue
Битрейт аудио: lossless
Продолжительность: 41 мин
Источник (релизер): Собственный рип
Наличие сканов в содержимом раздачи: да
Треклист:
01. Не дано
02. Call Me Misha
03. Ты прости
04. Нить
05. Пионер
06. Беспризорник
07. Georgia
08. Don't Give Up
09. Не дано (remix)
10. Childhood
11. Не дано (minus)

EAC log

Exact Audio Copy V0.99 prebeta 4 from 23. January 2008
Отчёт EAC об извлечении, выполненном 18. декабря 2008, 20:15
Hi-Fi / Первый контакт
Дисковод: SONY DVD RW DW-G120A Adapter: 3 ID: 1
Режим чтения : Достоверность
Использование точного потока : Да
Отключение кэша аудио : Да
Использование указателей C2 : Нет
Коррекция смещения при чтении : 6
Способность читать области Lead-in и Lead-out : Нет
Заполнение пропущенных сэмплов тишиной : Да
Удаление блоков с тишиной в начале и конце : Нет
При вычислениях CRC использовались нулевые сэмплы : Да
Интерфейс : Установленный внешний ASPI-интерфейс
Выходной формат : Внутренние WAV-операции
Формат сэмплов : 44.100 Гц; 16 бит; стерео
TOC извлечённого CD
Трек | Старт | Длительность | Начальный сектор | Конечный сектор
---------------------------------------------------------------------
1 | 0:00.00 | 3:35.62 | 0 | 16186
2 | 3:35.62 | 3:42.30 | 16187 | 32866
3 | 7:18.17 | 3:30.68 | 32867 | 48684
4 | 10:49.10 | 4:37.61 | 48685 | 69520
5 | 15:26.71 | 4:38.19 | 69521 | 90389
6 | 20:05.15 | 3:45.18 | 90390 | 107282
7 | 23:50.33 | 3:04.17 | 107283 | 121099
8 | 26:54.50 | 3:57.26 | 121100 | 138900
9 | 30:52.01 | 3:25.09 | 138901 | 154284
10 | 34:17.10 | 3:40.49 | 154285 | 170833
11 | 37:57.59 | 3:35.18 | 170834 | 186976
Характеристики диапазона извлечения и сообщения об ошибках
Выбранный диапазон
Имя файла H:\Musik\hi-fi\Первый контакт\Hi-Fi - Первый контакт.wav
Пиковый уровень 99.8 %
Качество диапазона 100.0 %
CRC копии 670972A0
Копирование... OK
Ошибок не произошло
Конец отчёта

Cue

Код:
REM DATE 1998
REM DISCID 8B09BD0B
REM COMMENT "ExactAudioCopy v0.99pb4"
PERFORMER "Hi-Fi"
TITLE "Первый контакт"
FILE "Hi-Fi - Первый контакт.wav" WAVE
  TRACK 01 AUDIO
    TITLE "Не дано"
    PERFORMER "Hi-Fi"
    INDEX 01 00:00:00
  TRACK 02 AUDIO
    TITLE "Call Me Misha"
    PERFORMER "Hi-Fi"
    INDEX 00 03:33:62
    INDEX 01 03:35:62
  TRACK 03 AUDIO
    TITLE "Ты прости"
    PERFORMER "Hi-Fi"
    INDEX 00 07:16:17
    INDEX 01 07:18:17
  TRACK 04 AUDIO
    TITLE "Нить"
    PERFORMER "Hi-Fi"
    INDEX 00 10:47:10
    INDEX 01 10:49:10
  TRACK 05 AUDIO
    TITLE "Пионер"
    PERFORMER "Hi-Fi"
    INDEX 00 15:24:71
    INDEX 01 15:26:71
  TRACK 06 AUDIO
    TITLE "Беспризорник"
    PERFORMER "Hi-Fi"
    INDEX 00 20:03:15
    INDEX 01 20:05:15
  TRACK 07 AUDIO
    TITLE "Georgia"
    PERFORMER "Hi-Fi"
    INDEX 00 23:48:33
    INDEX 01 23:50:33
  TRACK 08 AUDIO
    TITLE "Don't Give Up"
    PERFORMER "Hi-Fi"
    INDEX 00 26:52:50
    INDEX 01 26:54:50
  TRACK 09 AUDIO
    TITLE "Не дано (remix)"
    PERFORMER "Hi-Fi"
    INDEX 00 30:50:01
    INDEX 01 30:52:01
  TRACK 10 AUDIO
    TITLE "Childhood"
    PERFORMER "Hi-Fi"
    INDEX 00 34:15:10
    INDEX 01 34:17:10
  TRACK 11 AUDIO
    TITLE "Не дано (minus)"
    PERFORMER "Hi-Fi"
    INDEX 00 37:55:59
    INDEX 01 37:57:59

1999г. Репродукция

Страна-производитель диска: Russia
Год издания диска: 1999
Издатель (лейбл): Союз
Номер по каталогу: RR-009-CD
Аудио кодек: APE
Тип рипа: image+.cue
Битрейт аудио: lossless
Продолжительность: 36 мин
Источник (релизер): Собственный рип
Наличие сканов в содержимом раздачи: да
Треклист:
01. Про лето
02. Арабика
03. Черный ворон
04. Ты прости (remix)
05. Прости меня (remix)
06. Нить (remix)
07. Беспризорник (remix)
08. Куба
09. Fly
10. New York

EAC log

Exact Audio Copy V0.99 prebeta 4 from 23. January 2008
Отчёт EAC об извлечении, выполненном 18. декабря 2008, 15:08
Hi-fi / Репродукция
Дисковод: SONY DVD RW DW-G120A Adapter: 3 ID: 1
Режим чтения : Достоверность
Использование точного потока : Да
Отключение кэша аудио : Да
Использование указателей C2 : Нет
Коррекция смещения при чтении : 6
Способность читать области Lead-in и Lead-out : Нет
Заполнение пропущенных сэмплов тишиной : Да
Удаление блоков с тишиной в начале и конце : Нет
При вычислениях CRC использовались нулевые сэмплы : Да
Интерфейс : Установленный внешний ASPI-интерфейс
Выходной формат : Внутренние WAV-операции
Формат сэмплов : 44.100 Гц; 16 бит; стерео
TOC извлечённого CD
Трек | Старт | Длительность | Начальный сектор | Конечный сектор
---------------------------------------------------------------------
1 | 0:00.00 | 3:22.11 | 0 | 15160
2 | 3:22.11 | 4:59.06 | 15161 | 37591
3 | 8:21.17 | 4:21.60 | 37592 | 57226
4 | 12:43.02 | 3:25.71 | 57227 | 72672
5 | 16:08.73 | 4:28.39 | 72673 | 92811
6 | 20:37.37 | 3:23.22 | 92812 | 108058
7 | 24:00.59 | 4:09.08 | 108059 | 126741
8 | 28:09.67 | 2:57.71 | 126742 | 140087
9 | 31:07.63 | 3:10.48 | 140088 | 154385
10 | 34:18.36 | 2:41.49 | 154386 | 166509
Характеристики диапазона извлечения и сообщения об ошибках
Выбранный диапазон
Имя файла H:\Musik\Hi-fi - Репродукция\Hi-fi - Репродукция.wav
Пиковый уровень 100.0 %
Качество диапазона 100.0 %
CRC копии 344DB6D3
Копирование... OK
Ошибок не произошло
Конец отчёта

Cue

Код:
REM DATE 1999
REM DISCID 7D08AC0A
REM COMMENT "ExactAudioCopy v0.99pb4"
PERFORMER "Hi-fi"
TITLE "Репродукция"
FILE "Hi-fi - Репродукция.wav" WAVE
  TRACK 01 AUDIO
    TITLE "Про лето"
    PERFORMER "Hi-fi"
    INDEX 01 00:00:00
  TRACK 02 AUDIO
    TITLE "Арабика"
    PERFORMER "Hi-fi"
    INDEX 00 03:19:11
    INDEX 01 03:22:11
  TRACK 03 AUDIO
    TITLE "Черный ворон"
    PERFORMER "Hi-fi"
    INDEX 00 08:18:17
    INDEX 01 08:21:17
  TRACK 04 AUDIO
    TITLE "Ты прости (remix)"
    PERFORMER "Hi-fi"
    INDEX 00 12:40:02
    INDEX 01 12:43:02
  TRACK 05 AUDIO
    TITLE "Пионер (remix)"
    PERFORMER "Hi-fi"
    INDEX 00 16:05:73
    INDEX 01 16:08:73
  TRACK 06 AUDIO
    TITLE "Нить (remix)"
    PERFORMER "Hi-fi"
    INDEX 00 20:34:37
    INDEX 01 20:37:37
  TRACK 07 AUDIO
    TITLE "Беспризорник (remix)"
    PERFORMER "Hi-fi"
    INDEX 00 23:57:59
    INDEX 01 24:00:59
  TRACK 08 AUDIO
    TITLE "Куба"
    PERFORMER "Hi-fi"
    INDEX 00 28:06:67
    INDEX 01 28:09:67
  TRACK 09 AUDIO
    TITLE "Fly"
    PERFORMER "Hi-fi"
    INDEX 00 31:04:63
    INDEX 01 31:07:63
  TRACK 10 AUDIO
    TITLE "New York"
    PERFORMER "Hi-fi"
    INDEX 00 34:15:36
    INDEX 01 34:18:36

2001г. Запоминай

Страна-производитель диска: Russia
Год издания диска: 2001
Издатель (лейбл): Союз
Номер по каталогу: RR-070-CD
Аудио кодек: APE
Тип рипа: image+.cue
Битрейт аудио: lossless
Продолжительность: 33 мин
Источник (релизер): Собственный рип
Наличие сканов в содержимом раздачи: да
Треклист:
01. Так легко
02. Я кричу
03. Почтовый поезд
04. Все в огонь
05. Брат
06. За мной
07. Глупые люди
08. Он
09. 999
10. Бомбей

EAC log

Exact Audio Copy V0.99 prebeta 4 from 23. January 2008
Отчёт EAC об извлечении, выполненном 18. декабря 2008, 15:33
Hi-fi / Запоминай
Дисковод: SONY DVD RW DW-G120A Adapter: 3 ID: 1
Режим чтения : Достоверность
Использование точного потока : Да
Отключение кэша аудио : Да
Использование указателей C2 : Нет
Коррекция смещения при чтении : 6
Способность читать области Lead-in и Lead-out : Нет
Заполнение пропущенных сэмплов тишиной : Да
Удаление блоков с тишиной в начале и конце : Нет
При вычислениях CRC использовались нулевые сэмплы : Да
Интерфейс : Установленный внешний ASPI-интерфейс
Выходной формат : Внутренние WAV-операции
Формат сэмплов : 44.100 Гц; 16 бит; стерео
TOC извлечённого CD
Трек | Старт | Длительность | Начальный сектор | Конечный сектор
---------------------------------------------------------------------
1 | 0:00.00 | 3:02.00 | 0 | 13649
2 | 3:02.00 | 2:20.00 | 13650 | 24149
3 | 5:22.00 | 3:29.00 | 24150 | 39824
4 | 8:51.00 | 3:22.00 | 39825 | 54974
5 | 12:13.00 | 3:36.00 | 54975 | 71174
6 | 15:49.00 | 3:19.00 | 71175 | 86099
7 | 19:08.00 | 3:44.00 | 86100 | 102899
8 | 22:52.00 | 2:55.00 | 102900 | 116024
9 | 25:47.00 | 4:52.00 | 116025 | 137924
10 | 30:39.00 | 2:50.00 | 137925 | 150674
Характеристики диапазона извлечения и сообщения об ошибках
Выбранный диапазон
Имя файла H:\Musik\Hi-fi - Запоминай\Hi-fi - Запоминай.wav
Пиковый уровень 97.7 %
Качество диапазона 99.9 %
CRC копии 0FA6E5CE
Копирование... OK
Ошибок не произошло
Конец отчёта

Cue

Код:
REM DATE 2001
REM DISCID 7807D90A
REM COMMENT "ExactAudioCopy v0.99pb4"
PERFORMER "Hi-fi"
TITLE "Запоминай"
FILE "Hi-fi - Запоминай.wav" WAVE
  TRACK 01 AUDIO
    TITLE "Так легко"
    PERFORMER "Hi-fi"
    INDEX 01 00:00:00
  TRACK 02 AUDIO
    TITLE "Я кричу"
    PERFORMER "Hi-fi"
    INDEX 00 03:00:00
    INDEX 01 03:02:00
  TRACK 03 AUDIO
    TITLE "Почтовый поезд"
    PERFORMER "Hi-fi"
    INDEX 00 05:20:00
    INDEX 01 05:22:00
  TRACK 04 AUDIO
    TITLE "Все в огонь"
    PERFORMER "Hi-fi"
    INDEX 00 08:49:00
    INDEX 01 08:51:00
  TRACK 05 AUDIO
    TITLE "Брат"
    PERFORMER "Hi-fi"
    INDEX 00 12:11:00
    INDEX 01 12:13:00
  TRACK 06 AUDIO
    TITLE "За мной"
    PERFORMER "Hi-fi"
    INDEX 00 15:47:00
    INDEX 01 15:49:00
  TRACK 07 AUDIO
    TITLE "Глупые люди"
    PERFORMER "Hi-fi"
    INDEX 00 19:06:00
    INDEX 01 19:08:00
  TRACK 08 AUDIO
    TITLE "Он"
    PERFORMER "Hi-fi"
    INDEX 00 22:50:00
    INDEX 01 22:52:00
  TRACK 09 AUDIO
    TITLE "999"
    PERFORMER "Hi-fi"
    INDEX 00 25:45:00
    INDEX 01 25:47:00
  TRACK 10 AUDIO
    TITLE "Бомбей"
    PERFORMER "Hi-fi"
    INDEX 00 30:37:00
    INDEX 01 30:39:00

2002г. Запоминай (Полная версия)

Страна-производитель диска: Украина
Издатель (лейбл): Real Records
Номер по каталогу: JRC 02160-2
Аудио кодек: FLAC (*.flac)
Тип рипа: image+.cue
Битрейт аудио: lossless
Продолжительность: 53:30
Источник (релизер): trofimich52
Наличие сканов в содержимом раздачи: да
Треклист
01. Черный ворон [04:20]
02. Так легко [03:01]
03. Я кричу [02:19]
04. Почтовый поезд [03:27]
05. Все в огонь (Песня Царевны) [03:21]
06. Брат [03:34]
07. За мной [03:17]
08. Глупые люди [03:43]
09. Он (Запоминай) [02:54]
10. 999 [04:50]
11. Бомбей [02:51]
12. Сеть [02:02]
13. Арабика [04:57]
14. Куба [02:55]
15. Fly [03:08]
16. New York [02:42]

EAC log

Exact Audio Copy V1.0 beta 1 from 15. November 2010
Отчёт EAC об извлечении, выполненном 22. апреля 2011, 21:00
HiFi / Запоминай (Полная версия)
Дисковод: ASUS DRW-24B3ST Adapter: 0 ID: 1
Режим чтения : Достоверность
Использование точного потока : Да
Отключение кэша аудио : Да
Использование указателей C2 : Нет
Коррекция смещения при чтении : 6
Способность читать области Lead-in и Lead-out : Нет
Заполнение пропущенных сэмплов тишиной : Да
Удаление блоков с тишиной в начале и конце : Нет
При вычислениях CRC использовались нулевые сэмплы : Да
Интерфейс : Установленный внешний ASPI-интерфейс
Выходной формат : Пользовательский кодировщик
Выбранный битрейт : 768 kBit/s
Качество : Высокий
Добавление ID3-тэга : Нет
Утилита сжатия : C:\Program Files\Exact Audio Copy\Flac\flac.exe
Дополнительные параметры : -T "DATE=%y" -T "GENRE=%m" -8 -V %s
TOC извлечённого CD
Трек | Старт | Длительность | Начальный сектор | Конечный сектор
---------------------------------------------------------------------
1 | 0:00.00 | 4:20.55 | 0 | 19554
2 | 4:20.55 | 3:01.34 | 19555 | 33163
3 | 7:22.14 | 2:19.49 | 33164 | 43637
4 | 9:41.63 | 3:27.68 | 43638 | 59230
5 | 13:09.56 | 3:21.52 | 59231 | 74357
6 | 16:31.33 | 3:34.43 | 74358 | 90450
7 | 20:06.01 | 3:17.43 | 90451 | 105268
8 | 23:23.44 | 3:43.04 | 105269 | 121997
9 | 27:06.48 | 2:54.48 | 121998 | 135095
10 | 30:01.21 | 4:50.65 | 135096 | 156910
11 | 34:52.11 | 2:51.57 | 156911 | 169792
12 | 37:43.68 | 2:02.37 | 169793 | 178979
13 | 39:46.30 | 4:57.14 | 178980 | 201268
14 | 44:43.44 | 2:55.50 | 201269 | 214443
15 | 47:39.19 | 3:08.49 | 214444 | 228592
16 | 50:47.68 | 2:42.10 | 228593 | 240752
Характеристики диапазона извлечения и сообщения об ошибках
Выбранный диапазон
Имя файла D:\Winamp\HiFi - Запоминай (Полная версия).wav
Пиковый уровень 99.9 %
0.3 X
Качество диапазона 99.9 %
CRC теста AA58649B
CRC копии AA58649B
Копирование... OK
Ошибок не произошло
AccurateRip: сводка
Трек 1 нет в базе данных
Трек 2 нет в базе данных
Трек 3 нет в базе данных
Трек 4 нет в базе данных
Трек 5 нет в базе данных
Трек 6 нет в базе данных
Трек 7 нет в базе данных
Трек 8 нет в базе данных
Трек 9 нет в базе данных
Трек 10 нет в базе данных
Трек 11 нет в базе данных
Трек 12 нет в базе данных
Трек 13 нет в базе данных
Трек 14 нет в базе данных
Трек 15 нет в базе данных
Трек 16 нет в базе данных
Ни одного трека нет в базе AccurateRip
Конец отчёта

Cue

Код:
REM DATE 2002
REM DISCID 41104F14
REM COMMENT "ExactAudioCopy v0.99pb4"
PERFORMER "Hi-Fi"
TITLE "the best"
FILE "Hi-Fi - the best.wav" WAVE
  TRACK 01 AUDIO
    TITLE "Я люблю"
    PERFORMER "Hi-Fi"
    INDEX 01 00:00:00
  TRACK 02 AUDIO
    TITLE "Сш № 7 (а мы любили)"
    PERFORMER "Hi-Fi"
    INDEX 00 03:15:00
    INDEX 01 03:17:00
  TRACK 03 AUDIO
    TITLE "Olle!"
    PERFORMER "Hi-Fi"
    INDEX 00 06:23:00
    INDEX 01 06:25:00
  TRACK 04 AUDIO
    TITLE "Не дано"
    PERFORMER "Hi-Fi"
    INDEX 00 09:43:00
    INDEX 01 09:45:00
  TRACK 05 AUDIO
    TITLE "Черный ворон"
    PERFORMER "Hi-Fi"
    INDEX 00 13:21:00
    INDEX 01 13:23:00
  TRACK 06 AUDIO
    TITLE "Беспризорник"
    PERFORMER "Hi-Fi"
    INDEX 00 17:42:00
    INDEX 01 17:44:00
  TRACK 07 AUDIO
    TITLE "Про лето"
    PERFORMER "Hi-Fi"
    INDEX 00 21:28:00
    INDEX 01 21:30:00
  TRACK 08 AUDIO
    TITLE "Глупые люди"
    PERFORMER "Hi-Fi"
    INDEX 00 24:48:00
    INDEX 01 24:50:00
  TRACK 09 AUDIO
    TITLE "Почтовый поезд"
    PERFORMER "Hi-Fi"
    INDEX 00 28:32:00
    INDEX 01 28:34:00
  TRACK 10 AUDIO
    TITLE "Ты прости"
    PERFORMER "Hi-Fi"
    INDEX 00 32:01:00
    INDEX 01 32:03:00
  TRACK 11 AUDIO
    TITLE "Бомбей"
    PERFORMER "Hi-Fi"
    INDEX 00 35:33:00
    INDEX 01 35:35:00
  TRACK 12 AUDIO
    TITLE "Песня царевны"
    PERFORMER "Hi-Fi"
    INDEX 00 38:25:00
    INDEX 01 38:27:00
  TRACK 13 AUDIO
    TITLE "Так легко (la track slow down remix)"
    PERFORMER "Hi-Fi"
    INDEX 00 41:48:00
    INDEX 01 41:50:00
  TRACK 14 AUDIO
    TITLE "Арабика"
    PERFORMER "Hi-Fi"
    INDEX 00 44:45:00
    INDEX 01 44:47:00
  TRACK 15 AUDIO
    TITLE "Он (запоминай)"
    PERFORMER "Hi-Fi"
    INDEX 00 49:44:00
    INDEX 01 49:46:00
  TRACK 16 AUDIO
    TITLE "За мной"
    PERFORMER "Hi-Fi"
    INDEX 00 52:39:00
    INDEX 01 52:41:00
  TRACK 17 AUDIO
    TITLE "Нить"
    PERFORMER "Hi-Fi"
    INDEX 00 55:58:00
    INDEX 01 56:00:00
  TRACK 18 AUDIO
    TITLE "Куба"
    PERFORMER "Hi-Fi"
    INDEX 00 60:37:00
    INDEX 01 60:39:00
  TRACK 19 AUDIO
    TITLE "Я кричу"
    PERFORMER "Hi-Fi"
    INDEX 00 63:33:00
    INDEX 01 63:35:00
  TRACK 20 AUDIO
    TITLE "Childhood"
    PERFORMER "Hi-Fi"
    INDEX 00 65:53:00
    INDEX 01 65:55:00

2002г. D & J Remixes

Страна-производитель диска: Russia
Год издания диска: 2002
Издатель (лейбл): Iceberg Music
Номер по каталогу: RR-123-CD
Аудио кодек: FLAC (*.flac)
Тип рипа: image+.cue
Битрейт аудио: lossless
Продолжительность: 48:03
Источник (релизер): MiniMax1
Наличие сканов в содержимом раздачи: да
Треклист:
01. Черный ворон (AD Mix) 3:27
02. Глупые люди (Second Hand Band RMX) 4:30
03. Не дано (Transky Pop Mix) 4:40
04. Почтовый поезд (Nico Mix Club) 7:23
05. Всё в огонь (Красивый ремикс Гости из будущего) 4:36
06. Так легко (La Track Slow Down Remix) 2:54
07. Чёрный ворон (Noise Mix) 3:14
08. Запоминай (La Track Fashion Fly Mix) 3:31
09. Бомбей (La Track Dirty Art Mix) 3:50
10. Беспризорник (Leonardo Steppo Mix) 5:49
11. Воскресение (Remake) 3:47

EAC log

Exact Audio Copy V0.99 prebeta 5 from 4. May 2009
Отчёт EAC об извлечении, выполненном 27. ноября 2010, 7:29
Hi-Fi / D & J Remixes
Дисковод: PIONEER DVD-RW DVR-109 Adapter: 0 ID: 0
Режим чтения : Достоверность
Использование точного потока : Да
Отключение кэша аудио : Да
Использование указателей C2 : Нет
Коррекция смещения при чтении : 48
Способность читать области Lead-in и Lead-out : Нет
Заполнение пропущенных сэмплов тишиной : Да
Удаление блоков с тишиной в начале и конце : Нет
При вычислениях CRC использовались нулевые сэмплы : Да
Интерфейс : Встроенный Win32-интерфейс для Win NT/2000
Выходной формат : Внутренние WAV-операции
Формат сэмплов : 44.100 Гц; 16 бит; стерео
Смещение при сжатии : 0
TOC извлечённого CD
Трек | Старт | Длительность | Начальный сектор | Конечный сектор
---------------------------------------------------------------------
1 | 0:00.10 | 3:29.18 | 10 | 15702
2 | 3:29.28 | 4:32.42 | 15703 | 36144
3 | 8:01.70 | 4:41.69 | 36145 | 57288
4 | 12:43.64 | 7:25.00 | 57289 | 90663
5 | 20:08.64 | 4:38.20 | 90664 | 111533
6 | 24:47.09 | 2:56.35 | 111534 | 124768
7 | 27:43.44 | 3:15.67 | 124769 | 139460
8 | 30:59.36 | 3:33.15 | 139461 | 155450
9 | 34:32.51 | 3:51.64 | 155451 | 172839
10 | 38:24.40 | 5:50.74 | 172840 | 199163
11 | 44:15.39 | 3:47.57 | 199164 | 216245
Характеристики диапазона извлечения и сообщения об ошибках
Выбранный диапазон
Имя файла F:\Hi-Fi\Hi-Fi - 2002 D & J Remixes\Hi-Fi - D & J Remixes.wav
Пиковый уровень 99.9 %
Качество диапазона 100.0 %
CRC теста E8F1484A
CRC копии E8F1484A
Копирование... OK
Ошибок не произошло
AccurateRip: сводка
Трек 1 нет в базе данных
Трек 2 нет в базе данных
Трек 3 нет в базе данных
Трек 4 нет в базе данных
Трек 5 нет в базе данных
Трек 6 нет в базе данных
Трек 7 нет в базе данных
Трек 8 нет в базе данных
Трек 9 нет в базе данных
Трек 10 нет в базе данных
Трек 11 нет в базе данных
Ни одного трека нет в базе AccurateRip
Конец отчёта

Cue

Код:
REM GENRE Dance
REM DATE 2002
REM DISCID 8F0B430B
REM COMMENT "ExactAudioCopy v0.99pb5"
PERFORMER "Hi-Fi"
TITLE "D & J Remixes"
FILE "Hi-Fi - D & J Remixes.wav" WAVE
TRACK 01 AUDIO
TITLE "Черный ворон (AD Mix)"
PERFORMER "Hi-Fi"
INDEX 00 00:00:00
INDEX 01 00:00:10
TRACK 02 AUDIO
TITLE "Глупые люди (Second Hand Band RMX)"
PERFORMER "Hi-Fi"
INDEX 00 03:27:58
INDEX 01 03:29:28
TRACK 03 AUDIO
TITLE "Не дано (Transky Pop Mix)"
PERFORMER "Hi-Fi"
INDEX 00 08:00:25
INDEX 01 08:01:70
TRACK 04 AUDIO
TITLE "Почтовый поезд (Nico Mix Club)"
PERFORMER "Hi-Fi"
INDEX 00 12:42:19
INDEX 01 12:43:64
TRACK 05 AUDIO
TITLE "Всё в огонь (Красивый ремикс Гости из будущего)"
PERFORMER "Hi-Fi"
INDEX 00 20:07:19
INDEX 01 20:08:64
TRACK 06 AUDIO
TITLE "Так легко (La Track Slow Down Remix)"
PERFORMER "Hi-Fi"
INDEX 00 24:45:39
INDEX 01 24:47:09
TRACK 07 AUDIO
TITLE "Чёрный ворон (Noise Mix)"
PERFORMER "Hi-Fi"
INDEX 00 27:41:74
INDEX 01 27:43:44
TRACK 08 AUDIO
TITLE "Запоминай (La Track Fashion Fly Mix )"
PERFORMER "Hi-Fi"
INDEX 00 30:57:66
INDEX 01 30:59:36
TRACK 09 AUDIO
TITLE "Бомбей (La Track Dirty Art Mix)"
PERFORMER "Hi-Fi"
INDEX 00 34:31:06
INDEX 01 34:32:51
TRACK 10 AUDIO
TITLE "Беспризорник (Leonardo Steppo Mix)"
PERFORMER "Hi-Fi"
INDEX 00 38:22:70
INDEX 01 38:24:40
TRACK 11 AUDIO
TITLE "Воскресение (Remake)"
PERFORMER "Hi-Fi"
INDEX 00 44:13:69
INDEX 01 44:15:39

2002г. Best

Страна-производитель диска: Russia
Год издания диска: 2002
Издатель (лейбл): Real Records
Номер по каталогу: RR-202-CD
Аудио кодек: APE
Тип рипа: image+.cue
Битрейт аудио: lossless
Продолжительность: 68 мин
Источник (релизер): Собственный рип
Наличие сканов в содержимом раздачи: да
Треклист:
01. Я люблю
02. Сш № 7 (а мы любили)
03. Olle!
04. Не дано
05. Черный ворон
06. Беспризорник
07. Про лето
08. Глупые люди
09. Почтовый поезд
10. Ты прости
11. Бомбей
12. Песня царевны
13. Так легко (la track slow down remix)
14. Арабика
15. Он (запоминай)
16. За мной
17. Нить
18. Куба
19. Я кричу
20. Childhood

EAC log

Exact Audio Copy V0.99 prebeta 4 from 23. January 2008
Отчёт EAC об извлечении, выполненном 18. декабря 2008, 13:38
Hi-Fi / the best
Дисковод: SONY DVD RW DW-G120A Adapter: 3 ID: 1
Режим чтения : Достоверность
Использование точного потока : Да
Отключение кэша аудио : Да
Использование указателей C2 : Нет
Коррекция смещения при чтении : 6
Способность читать области Lead-in и Lead-out : Нет
Заполнение пропущенных сэмплов тишиной : Да
Удаление блоков с тишиной в начале и конце : Нет
При вычислениях CRC использовались нулевые сэмплы : Да
Интерфейс : Установленный внешний ASPI-интерфейс
Выходной формат : Внутренние WAV-операции
Формат сэмплов : 44.100 Гц; 16 бит; стерео
TOC извлечённого CD
Трек | Старт | Длительность | Начальный сектор | Конечный сектор
---------------------------------------------------------------------
1 | 0:00.00 | 3:17.00 | 0 | 14774
2 | 3:17.00 | 3:08.00 | 14775 | 28874
3 | 6:25.00 | 3:20.00 | 28875 | 43874
4 | 9:45.00 | 3:38.00 | 43875 | 60224
5 | 13:23.00 | 4:21.00 | 60225 | 79799
6 | 17:44.00 | 3:46.00 | 79800 | 96749
7 | 21:30.00 | 3:20.00 | 96750 | 111749
8 | 24:50.00 | 3:44.00 | 111750 | 128549
9 | 28:34.00 | 3:29.00 | 128550 | 144224
10 | 32:03.00 | 3:32.00 | 144225 | 160124
11 | 35:35.00 | 2:52.00 | 160125 | 173024
12 | 38:27.00 | 3:23.00 | 173025 | 188249
13 | 41:50.00 | 2:57.00 | 188250 | 201524
14 | 44:47.00 | 4:59.00 | 201525 | 223949
15 | 49:46.00 | 2:55.00 | 223950 | 237074
16 | 52:41.00 | 3:19.00 | 237075 | 251999
17 | 56:00.00 | 4:39.00 | 252000 | 272924
18 | 60:39.00 | 2:56.00 | 272925 | 286124
19 | 63:35.00 | 2:20.00 | 286125 | 296624
20 | 65:55.00 | 3:40.00 | 296625 | 313124
Характеристики диапазона извлечения и сообщения об ошибках
Выбранный диапазон
Имя файла H:\Musik\Hi-Fi - the best\Hi-Fi - the best.wav
Пиковый уровень 98.8 %
Качество диапазона 100.0 %
CRC копии 158EE73A
Копирование... OK
Ошибок не произошло
Конец отчёта

Cue

Код:
REM DATE 2002
REM DISCID 41104F14
REM COMMENT "ExactAudioCopy v0.99pb4"
PERFORMER "Hi-Fi"
TITLE "the best"
FILE "Hi-Fi - the best.wav" WAVE
  TRACK 01 AUDIO
    TITLE "Я люблю"
    PERFORMER "Hi-Fi"
    INDEX 01 00:00:00
  TRACK 02 AUDIO
    TITLE "Сш № 7 (а мы любили)"
    PERFORMER "Hi-Fi"
    INDEX 00 03:15:00
    INDEX 01 03:17:00
  TRACK 03 AUDIO
    TITLE "Olle!"
    PERFORMER "Hi-Fi"
    INDEX 00 06:23:00
    INDEX 01 06:25:00
  TRACK 04 AUDIO
    TITLE "Не дано"
    PERFORMER "Hi-Fi"
    INDEX 00 09:43:00
    INDEX 01 09:45:00
  TRACK 05 AUDIO
    TITLE "Черный ворон"
    PERFORMER "Hi-Fi"
    INDEX 00 13:21:00
    INDEX 01 13:23:00
  TRACK 06 AUDIO
    TITLE "Беспризорник"
    PERFORMER "Hi-Fi"
    INDEX 00 17:42:00
    INDEX 01 17:44:00
  TRACK 07 AUDIO
    TITLE "Про лето"
    PERFORMER "Hi-Fi"
    INDEX 00 21:28:00
    INDEX 01 21:30:00
  TRACK 08 AUDIO
    TITLE "Глупые люди"
    PERFORMER "Hi-Fi"
    INDEX 00 24:48:00
    INDEX 01 24:50:00
  TRACK 09 AUDIO
    TITLE "Почтовый поезд"
    PERFORMER "Hi-Fi"
    INDEX 00 28:32:00
    INDEX 01 28:34:00
  TRACK 10 AUDIO
    TITLE "Ты прости"
    PERFORMER "Hi-Fi"
    INDEX 00 32:01:00
    INDEX 01 32:03:00
  TRACK 11 AUDIO
    TITLE "Бомбей"
    PERFORMER "Hi-Fi"
    INDEX 00 35:33:00
    INDEX 01 35:35:00
  TRACK 12 AUDIO
    TITLE "Песня царевны"
    PERFORMER "Hi-Fi"
    INDEX 00 38:25:00
    INDEX 01 38:27:00
  TRACK 13 AUDIO
    TITLE "Так легко (la track slow down remix)"
    PERFORMER "Hi-Fi"
    INDEX 00 41:48:00
    INDEX 01 41:50:00
  TRACK 14 AUDIO
    TITLE "Арабика"
    PERFORMER "Hi-Fi"
    INDEX 00 44:45:00
    INDEX 01 44:47:00
  TRACK 15 AUDIO
    TITLE "Он (запоминай)"
    PERFORMER "Hi-Fi"
    INDEX 00 49:44:00
    INDEX 01 49:46:00
  TRACK 16 AUDIO
    TITLE "За мной"
    PERFORMER "Hi-Fi"
    INDEX 00 52:39:00
    INDEX 01 52:41:00
  TRACK 17 AUDIO
    TITLE "Нить"
    PERFORMER "Hi-Fi"
    INDEX 00 55:58:00
    INDEX 01 56:00:00
  TRACK 18 AUDIO
    TITLE "Куба"
    PERFORMER "Hi-Fi"
    INDEX 00 60:37:00
    INDEX 01 60:39:00
  TRACK 19 AUDIO
    TITLE "Я кричу"
    PERFORMER "Hi-Fi"
    INDEX 00 63:33:00
    INDEX 01 63:35:00
  TRACK 20 AUDIO
    TITLE "Childhood"
    PERFORMER "Hi-Fi"
    INDEX 00 65:53:00
    INDEX 01 65:55:00

2006г. Любовное настроение

Страна-производитель диска: Russia
Аудио кодек: APE
Тип рипа: image+.cue
Битрейт аудио: lossless
Продолжительность: 71 мин
Источник (релизер): web
Наличие сканов в содержимом раздачи: нет
Треклист:
1. СШ № 7 (А мы любили)
2. Про лето
3. Не дано
4. Беспризорник
5. За мной
6. Глупые люди
7. Седьмой лепесток
8. Бомбей
9. Пионер
10. Ты прости
11. Так легко
12. Черный ворон
13. Georgia
14. Почтовый поезд
15. Берега
16. Он (запоминай)
17. Куба
18. Арабика
19. Я кричу
20. Все в огонь (песня царевны)
21. Нить (ремикс)

EAC log

Exact Audio Copy V0.99 prebeta 4 from 23. January 2008
Отчёт EAC об извлечении, выполненном 18. декабря 2008, 21:22
Hi-Fi / Любовное настроение
Дисковод: SONY DVD RW DW-G120A Adapter: 3 ID: 1
Режим чтения : Достоверность
Использование точного потока : Да
Отключение кэша аудио : Да
Использование указателей C2 : Нет
Коррекция смещения при чтении : 6
Способность читать области Lead-in и Lead-out : Нет
Заполнение пропущенных сэмплов тишиной : Да
Удаление блоков с тишиной в начале и конце : Нет
При вычислениях CRC использовались нулевые сэмплы : Да
Интерфейс : Установленный внешний ASPI-интерфейс
Выходной формат : Внутренние WAV-операции
Формат сэмплов : 44.100 Гц; 16 бит; стерео
TOC извлечённого CD
Трек | Старт | Длительность | Начальный сектор | Конечный сектор
---------------------------------------------------------------------
1 | 0:00.00 | 3:07.28 | 0 | 14052
2 | 3:07.28 | 3:19.02 | 14053 | 28979
3 | 6:26.30 | 3:37.15 | 28980 | 45269
4 | 10:03.45 | 3:45.26 | 45270 | 62170
5 | 13:48.71 | 3:18.17 | 62171 | 77037
6 | 17:07.13 | 3:42.64 | 77038 | 93751
7 | 20:50.02 | 3:13.32 | 93752 | 108258
8 | 24:03.34 | 2:51.60 | 108259 | 121143
9 | 26:55.19 | 4:38.27 | 121144 | 142020
10 | 31:33.46 | 3:31.01 | 142021 | 157846
11 | 35:04.47 | 2:56.47 | 157847 | 171093
12 | 38:01.19 | 4:21.13 | 171094 | 190681
13 | 42:22.32 | 3:04.20 | 190682 | 204501
14 | 45:26.52 | 3:28.12 | 204502 | 220113
15 | 48:54.64 | 3:02.32 | 220114 | 233795
16 | 51:57.21 | 2:54.27 | 233796 | 246872
17 | 54:51.48 | 2:55.03 | 246873 | 260000
18 | 57:46.51 | 4:56.54 | 260001 | 282254
19 | 62:43.30 | 2:19.06 | 282255 | 292685
20 | 65:02.36 | 3:23.26 | 292686 | 307936
21 | 68:25.62 | 3:20.74 | 307937 | 323010
Характеристики диапазона извлечения и сообщения об ошибках
Выбранный диапазон
Имя файла H:\Musik\hi-fi\Любовное настроение\Hi-Fi - Любовное настроение.wav
Пиковый уровень 99.9 %
Качество диапазона 100.0 %
CRC копии AB6CA2BD
Копирование... OK
Ошибок не произошло
Конец отчёт

Cue

Код:
REM DATE 2006
REM DISCID 3B10D215
REM COMMENT "ExactAudioCopy v0.99pb4"
PERFORMER "Hi-Fi"
TITLE "Любовное настроение"
FILE "Hi-Fi - Любовное настроение.wav" WAVE
  TRACK 01 AUDIO
    TITLE "СШ № 7 (А мы любили)"
    PERFORMER "Hi-Fi"
    INDEX 01 00:00:00
  TRACK 02 AUDIO
    TITLE "Про лето"
    PERFORMER "Hi-Fi"
    INDEX 00 03:05:28
    INDEX 01 03:07:28
  TRACK 03 AUDIO
    TITLE "Не дано"
    PERFORMER "Hi-Fi"
    INDEX 00 06:24:30
    INDEX 01 06:26:30
  TRACK 04 AUDIO
    TITLE "Беспризорник"
    PERFORMER "Hi-Fi"
    INDEX 00 10:01:45
    INDEX 01 10:03:45
  TRACK 05 AUDIO
    TITLE "За мной"
    PERFORMER "Hi-Fi"
    INDEX 00 13:46:71
    INDEX 01 13:48:71
  TRACK 06 AUDIO
    TITLE "Глупые люди"
    PERFORMER "Hi-Fi"
    INDEX 00 17:05:13
    INDEX 01 17:07:13
  TRACK 07 AUDIO
    TITLE "Седьмой лепесток"
    PERFORMER "Hi-Fi"
    INDEX 00 20:48:02
    INDEX 01 20:50:02
  TRACK 08 AUDIO
    TITLE "Бомбей"
    PERFORMER "Hi-Fi"
    INDEX 00 24:01:34
    INDEX 01 24:03:34
  TRACK 09 AUDIO
    TITLE "Пионер"
    PERFORMER "Hi-Fi"
    INDEX 00 26:53:19
    INDEX 01 26:55:19
  TRACK 10 AUDIO
    TITLE "Ты прости"
    PERFORMER "Hi-Fi"
    INDEX 00 31:31:46
    INDEX 01 31:33:46
  TRACK 11 AUDIO
    TITLE "Так легко"
    PERFORMER "Hi-Fi"
    INDEX 00 35:02:47
    INDEX 01 35:04:47
  TRACK 12 AUDIO
    TITLE "Черный ворон"
    PERFORMER "Hi-Fi"
    INDEX 00 37:59:19
    INDEX 01 38:01:19
  TRACK 13 AUDIO
    TITLE "Georgia"
    PERFORMER "Hi-Fi"
    INDEX 00 42:20:32
    INDEX 01 42:22:32
  TRACK 14 AUDIO
    TITLE "Почтовый поезд"
    PERFORMER "Hi-Fi"
    INDEX 00 45:24:52
    INDEX 01 45:26:52
  TRACK 15 AUDIO
    TITLE "Берега"
    PERFORMER "Hi-Fi"
    INDEX 00 48:52:64
    INDEX 01 48:54:64
  TRACK 16 AUDIO
    TITLE "Он (запоминай)"
    PERFORMER "Hi-Fi"
    INDEX 00 51:55:21
    INDEX 01 51:57:21
  TRACK 17 AUDIO
    TITLE "Куба"
    PERFORMER "Hi-Fi"
    INDEX 00 54:49:48
    INDEX 01 54:51:48
  TRACK 18 AUDIO
    TITLE "Арабика"
    PERFORMER "Hi-Fi"
    INDEX 00 57:44:51
    INDEX 01 57:46:51
  TRACK 19 AUDIO
    TITLE "Я кричу"
    PERFORMER "Hi-Fi"
    INDEX 00 62:41:30
    INDEX 01 62:43:30
  TRACK 20 AUDIO
    TITLE "Все в огонь (песня царевны)"
    PERFORMER "Hi-Fi"
    INDEX 00 65:00:36
    INDEX 01 65:02:36
  TRACK 21 AUDIO
    TITLE "Нить (ремикс)"
    PERFORMER "Hi-Fi"
    INDEX 00 68:23:62
    INDEX 01 68:25:62

2008г. The Best 1

Страна-производитель диска: Russia
Год издания диска: 2008
Издатель (лейбл): Monolit Records
Аудио кодек: APE
Тип рипа: image+.cue
Битрейт аудио: lossless
Продолжительность: 53 мин
Источник (релизер): web
Наличие сканов в содержимом раздачи: да
Треклист:
01. Бомбей
02. Ты прости (Дети)
03. Про лето
04. Беспризорник
05. Я люблю
06. 7 лепесток
07. Школа N 7
08. Билет
09. Черный ворон
10. Пионер (remix)
11. Взлетай
12. Не дано
13. Беда
14. Берега
15. Все в огонь (Песня царевны)
16. Глупые люди

EAC log

Exact Audio Copy V0.99 prebeta 4 from 23. January 2008
Отчёт EAC об извлечении, выполненном 18. декабря 2008, 19:12
Hi-Fi / the best 1
Дисковод: SONY DVD RW DW-G120A Adapter: 3 ID: 1
Режим чтения : Достоверность
Использование точного потока : Да
Отключение кэша аудио : Да
Использование указателей C2 : Нет
Коррекция смещения при чтении : 6
Способность читать области Lead-in и Lead-out : Нет
Заполнение пропущенных сэмплов тишиной : Да
Удаление блоков с тишиной в начале и конце : Нет
При вычислениях CRC использовались нулевые сэмплы : Да
Интерфейс : Установленный внешний ASPI-интерфейс
Выходной формат : Внутренние WAV-операции
Формат сэмплов : 44.100 Гц; 16 бит; стерео
TOC извлечённого CD
Трек | Старт | Длительность | Начальный сектор | Конечный сектор
---------------------------------------------------------------------
1 | 0:00.00 | 2:52.39 | 0 | 12938
2 | 2:52.39 | 2:59.73 | 12939 | 26436
3 | 5:52.37 | 3:00.74 | 26437 | 40010
4 | 8:53.36 | 3:49.08 | 40011 | 57193
5 | 12:42.44 | 3:16.22 | 57194 | 71915
6 | 15:58.66 | 3:19.16 | 71916 | 86856
7 | 19:18.07 | 2:53.73 | 86857 | 99904
8 | 22:12.05 | 3:16.57 | 99905 | 114661
9 | 25:28.62 | 4:35.45 | 114662 | 135331
10 | 30:04.32 | 3:27.71 | 135332 | 150927
11 | 33:32.28 | 3:18.45 | 150928 | 165822
12 | 36:50.73 | 3:53.73 | 165823 | 183370
13 | 40:44.71 | 2:42.12 | 183371 | 195532
14 | 43:27.08 | 3:02.00 | 195533 | 209182
15 | 46:29.08 | 3:22.39 | 209183 | 224371
16 | 49:51.47 | 3:40.20 | 224372 | 240891
Характеристики диапазона извлечения и сообщения об ошибках
Выбранный диапазон
Имя файла H:\Musik\hi-fi\the best 1\Hi-Fi - the best 1.wav
Пиковый уровень 98.9 %
Качество диапазона 100.0 %
CRC копии AD19B243
Копирование... OK
Ошибок не произошло
Конец отчёта

Cue

Код:
REM DATE 2008
REM DISCID CB0C8B10
REM COMMENT "ExactAudioCopy v0.99pb4"
PERFORMER "Hi-Fi"
TITLE "the best 1"
FILE "Hi-Fi - the best 1.wav" WAVE
  TRACK 01 AUDIO
    TITLE "Бомбей"
    PERFORMER "Hi-Fi"
    INDEX 01 00:00:00
  TRACK 02 AUDIO
    TITLE "Ты прости (Дети)"
    PERFORMER "Hi-Fi"
    INDEX 00 02:50:39
    INDEX 01 02:52:39
  TRACK 03 AUDIO
    TITLE "Про лето"
    PERFORMER "Hi-Fi"
    INDEX 00 05:50:37
    INDEX 01 05:52:37
  TRACK 04 AUDIO
    TITLE "Беспризорник"
    PERFORMER "Hi-Fi"
    INDEX 00 08:51:36
    INDEX 01 08:53:36
  TRACK 05 AUDIO
    TITLE "Я люблю"
    PERFORMER "Hi-Fi"
    INDEX 00 12:40:44
    INDEX 01 12:42:44
  TRACK 06 AUDIO
    TITLE "7 лепесток"
    PERFORMER "Hi-Fi"
    INDEX 00 15:56:66
    INDEX 01 15:58:66
  TRACK 07 AUDIO
    TITLE "Школа N 7"
    PERFORMER "Hi-Fi"
    INDEX 00 19:16:07
    INDEX 01 19:18:07
  TRACK 08 AUDIO
    TITLE "Билет"
    PERFORMER "Hi-Fi"
    INDEX 00 22:10:05
    INDEX 01 22:12:05
  TRACK 09 AUDIO
    TITLE "Черный ворон"
    PERFORMER "Hi-Fi"
    INDEX 00 25:26:62
    INDEX 01 25:28:62
  TRACK 10 AUDIO
    TITLE "Пионер (remix)"
    PERFORMER "Hi-Fi"
    INDEX 00 30:02:32
    INDEX 01 30:04:32
  TRACK 11 AUDIO
    TITLE "Взлетай"
    PERFORMER "Hi-Fi"
    INDEX 00 33:30:28
    INDEX 01 33:32:28
  TRACK 12 AUDIO
    TITLE "Не дано"
    PERFORMER "Hi-Fi"
    INDEX 00 36:48:73
    INDEX 01 36:50:73
  TRACK 13 AUDIO
    TITLE "Беда"
    PERFORMER "Hi-Fi"
    INDEX 00 40:42:71
    INDEX 01 40:44:71
  TRACK 14 AUDIO
    TITLE "Берега"
    PERFORMER "Hi-Fi"
    INDEX 00 43:25:08
    INDEX 01 43:27:08
  TRACK 15 AUDIO
    TITLE "Все в огонь (Песня царевны)"
    PERFORMER "Hi-Fi"
    INDEX 00 46:27:08
    INDEX 01 46:29:08
  TRACK 16 AUDIO
    TITLE "Глупые люди"
    PERFORMER "Hi-Fi"
    INDEX 00 49:49:47
    INDEX 01 49:51:47

-

О группе

Создателями проекта "Hi-Fi" стали два друга из Новосибирска: продюсер и по совместительству автор Текстов - Эрик Чантурия и композитор и аранжировщик Павел Есенин. Некоторые песни, которые исполняли "Hi-Fi" на своем первом альбоме ранее исполнял проект "Orbita", участниками которого были и Эрик Чантурия и Павел Есенин и Дмитрий Фомин (Митя из "Hi-Fi"), но постепенно Эрик стал заниматься менеджментом, Павел написанием песен, а Митя продолжал петь, чем сейчас весьма успешно и занимается в "Hi-Fi".
Группа "Hi-Fi" появилась на свет 2 августа 1998 года, в этот день Ксюша, Митя и Тимофей приехали в Санкт-Петербург, на съемки своего дебютного видеоклипа на композицию "Не Дано", режиссером которого выступил известный стилист, имиджмейкер и т.д. Алишер и Эрик Чантурия. К радости продюсера группы - Эрика Чантурия троица "Hi-Fi" сразу же нашли общий язык, мало того они стали настоящими друзьями! До съемок ребята не пересекались друг с другом, даже на студии они записывались в разное время.
Первое выступление состоялось уже 23 августа того же года на большом сборном концерте "Поп-спорт-шоу Союз-23", где "Hi-Fi" принимали, как долгожданных звезд! За 21 день после съемок клипа- "Hi-Fi" стали настоящими звездами! Однако любовь народа "Hi-Fi" снискали еще до появления клипа, дело в том, что в начале лета 98-го на радиостанциях появилась песня "Ты Прости", которая сразу же стала настоящим хитом. А после появления "Не Дано" трио "Hi-Fi" превратились в настоящих народных героев! В начале 1999 года "Hi-Fi" подарили своим поклонникам новый клип на композицию "Беспризорник", авторами которого выступили братья Бледновы. После появления этого ролика "Hi-Fi" перешагнули статус "звезд" и приобрели статус "мега-звезд". "Беспризорник" не звучал разве что из посудомоечных машин. 18 февраля 99-го на прилавки музыкальных магазинов поступает дебютный диск группы- "Первый Контакт". Диск сразуже бьет рекорды по продажам, учитывая то, что на период выхода этого альбома страна еще не отошла от кризиса- такой успех был неожиданным даже для самих "Hi-Fi".
Сразу после выхода «Первого контакта» авторы Hi-Fi начали готовить материал для следующего альбома. Пластинка «Rепродукция» вышла во второй половине 1999 года. В неё вошли ремиксы Павла Есенина на хиты с альбома «Первый контакт», а также 3 ранее не издававшиеся песни – «Чёрный ворон», «Про лето» и «Куба». Две из них в то же самое время обзавелись видеоверсиями.
Осенью 2000 года у Hi-Fi выходит новый шедевр – песня «Глупые люди». Эта композиция стала первой ласточкой с грядущего альбома Hi-Fi. Третья по счету пластинка группы «Запоминай» вышла в феврале 2001 года и включала в себя семь абсолютно новых песен и три уже известных публике композиции .В конце 2001 года группа Hi-Fi снова выпускает альбом, на сей раз альбом ремиксов. Именно тогда впервые была нарушена многолетняя традиция Hi-Fi – создание мелодий для проекта доверили не Павлу Есенину. Эксперимент в виде создания ремиксов на лучшие песни коллектива поддержали такие музыканты, как Максим Фадеев, Юрий Усачев, Евгений Курицын и другие, - их оригинальные версии проверенных хитов Hi-Fi и составили новую пластинку группы под названием «Новая коллекция-2002» или «D&J REMIXES».
В апреле 2002 года состоялись съемки пятого видеоклипа Hi-Fi. Песня «Средняя школа №7» вошла в золотую обойму хитов Hi-Fi и каждое лето становится гимном всех школьных выпускных. Следующая композиция «Я люблю» стала последней совместной работой первоначального состава проекта.
В 2003 году в коллективе произошли серьезные изменения: солистка группы Оксана Олешко приняла решение покинуть коллектив и посвятить себя семье и мужу. На место Ксюши в группе появилась профессиональная модель Татьяна Терешина, которая сейчас выступает сольно под псевдонимом Таня. Первой работой обновленного состава Hi-Fi стала песня «Седьмой лепесток». В 2004 году песни коллектива были признаны самыми ротируемыми.
В начале 2006 года группа Hi-Fi вновь поменяла солистку, ею стала студентка джазового отделения Санкт-Петербургского Университета культуры и искусств Екатерина Ли.
В конце 2007 года группа Hi-Fi отправилась в Киев, где были запланированы съёмки клипа «Право на счастье» под руководством талантливого украинского режиссёра Алана Бадоева.
2 августа 2008 года группа Hi-Fi встретила десятый день рождения. Итог: десятки неизменно хитовых песен, необъятное количество наград, призов и премий, качественная работа на тысячах площадок по всей России и далеко за ее пределами, узнаваемый и горячо любимый многими образ - след в истории оставлен.
В январе 2009 года в группе Hi-Fi происходят изменения. На смену Мите Фомину, покинувшему коллектив ради сольной карьеры, приходит новый участник - Кирилл Колгушкин. В обновленном составе группа выпускает новый хит «Нам пора» и снимает клип с одноименным названием под руководством режиссера Максима Рожкова.
Изменения в составе проекта:
Первоначальный состав: Митя, Тимофей, Ксюша
В марте 2003 года в группу пришла модель Татьяна Терешина. Эффектная Татьяна заменила Оксану Олешко, которая решила посвятить себя семье и мужу.
В мае 2005 года коллектив приступил к поискам новой солистки. Красавица Татьяна смело вышла в большое плавание по волнам шоу-бизнеса. Пожелав Тане удачи, продюсеры начали внимательно смотреть за новыми лицами столицы. Началась охота на «новую звезду».
В 2006 году на гастролях в Санкт-Петербурге участники группы познакомились с девушкой по имени Катя, студенткой джазового отделения Санкт-Петербургского Университета Культуры и Искусств, которая впоследствии была утверждена на роль солистки. Знакомство состоялось в караоке-ресторане, куда артисты приехали поужинать после своего выступления, Катя работала там в шоу-программе в качестве вокалистки. Таким образом, музыкальный коллектив завершил поиски новой участницы, которые велись без малого 9 месяцев. Выносив «новую звезду», продюсеры обновили состав балета, в который вошли четыре новых девушки. В такой «малине» началась подготовка к взятию новых рубежей.
В январе 2009 года коллектив вновь обновлен. Но на этот раз продюсеры ищут яркую замену одному из мужчин коллектива. Группу покинул Митя Фомин. Так в ходе долгих поисков, кастингов и собеседований на сцену выходит молодой сексуальный Кирилл. Жажда творчества Кирилла, самобытный стиль и открытый характер, позволяют ему быстро войти в состав «Hi-Fi», принеся яркий позитивный стиль.
2010 год. Новый статус – новая красавица. Газеты тут же называют Олесю Липчанскую российской Анжелиной Джоли. Свободная, легкая на подъем, любящая жизнь, Олеся быстро вливается в коллектив, не испытывая трудностей общения с постоянным составом. Свою 24 весну Олеся проводит в студии, записывая женские вокальные партии для нового альбома группы.
В апреле 2011 года Кирилл принимает решение покинуть проект.
Сегодня группа «Hi-Fi» - это состоявшийся бренд, популярная торговая марка. От стиля жизни «Hi-Fi» удовольствие получают и повзрослевшие фаны 90-х и новое поколение зрителей, любящих яркую, качественную и самобытную музыку. Вдохновители и основатели коллектива Эрик Чантурия и Павел Есенин задают вектор движения коллектива в русле шоу-бизнеса, а ребята готовы к новым победам, покорению хит-парадов и, конечно, к новым встречам со своими слушателями. В концертах звучат самые лучшие и популярные песни всех времен «Hi-Fi». Помня, что движение жизнь, продюсеры коллектива вместе с ребятами активно работают над новыми песнями в студии, уже готова постановка новых танцевальных номеров для балетного шоу.
Главное, чтобы творческая жизнь группы была свежей и полной, чтобы каждая минута на сцене была посвящена зрителям, и новые песни этой весной звучали в сердце каждого.
название группы придумал известный имиджмейкер Алишер; Hi-Fi (high fidelity) = «высочайшее качество»"

YouTube


_________________
Other forum [Profile] [PM]
Display posts from previous:    
Reply to topic

The time now is: Today 20:57

All times are GMT + 3 Hours



You cannot post new topics in this forum
You cannot reply to topics in this forum
You cannot edit your posts in this forum
You cannot delete your posts in this forum
You cannot vote in polls in this forum
You cannot attach files in this forum
You cannot download files in this forum