Сегодня идет свободное скачивание без начисления Download

Симпсоны / The Simpsons / Сезон: 22 / Серии: 1-6 из 22 (Мэтт Гроунинг / Matt Groening) [2010; комедия, ситком, сатира; WEB-DL 1080p] 3xMVO (2x2, VO-production, NemFilm) + DVO (ДубльPR) + Original + Rus Sub (Notabenoid) + Eng Sub

Ответить на тему
 
Автор
Сообщение

Omen ®

Стаж: 5 лет

Сообщений: 190529

Торрент-статистика

Пост 18-Июл-2015 12:32

[Цитировать]

Симпсоны / The Simpsons-
  • Страна: США
  • Жанр: комедия, ситком, сатира
  • Продолжительность серии: ~00:22:00
  • Год выпуска: 2010
  • Перевод:
  • Профессиональный (многоголосый закадровый) - 2x2, VO-production, NemFilm
  • Любительский (двухголосый закадровый) - ДубльPR
  • Русские субтитры: есть - Notabenoid
    -
  • Режиссёр: Мэтт Гроунинг / Matt Groening
  • Роли озвучивали: Дэн Кастелланета, Хэнк Азариа, Джулия Кавнер, Нэнси Картрайт, Ярдли Смит, Гарри Ширер
    -
  • Описание: Мультфильм — пародия на американский уклад жизни. Семейство Симпсонов состоит из пяти членов: папаша Гомер, мать семейства Мардж, их дочери Лиза и Мэгги и несносный подросток Барт.
    -
  • Семпл
    -
  • Качество: WEB-DL 1080p
  • Формат: MKV
  • Видео: H.264, 1920x1080, 23.976 fps, ~5000 kbps [English]
  • Аудио:
  • AC3, 48.0 KHz, 2.0 ch, 192 kbps [Russian: 2x2]
  • AC3, 48.0 KHz, 2.0 ch, 192 kbps [Russian: VO-production]
  • AC3, 48.0 KHz, 2.0 ch, 192 kbps [Russian: NemFilm]
  • AC3, 48.0 KHz, 5.1 ch, 384 kbps [Russian: ДубльPR]
  • AC3, 48.0 KHz, 5.1 ch, 384 kbps [English]
  • Субтитры: Russian (Notabenoid), English
    -
  • Доп. информация:
  • За перевод 2x2 благодарность ALEKS KV, Den.S-92 и SerGoLeOne.
  • За перевод VO-production благодарность uxTuaHgp.
  • За перевод NemFilm благодарность L0cDoG.
  • За перевод ДубльPR благодарность sergey82-276.
  • За субтитры Notabenoid благодарность Runid75.

Подробные технические данные

GeneralUnique ID : 206786304012584053929587945989450769368 (0x9B9197EF87E1E1E0A848545ED95823D8)Complete name : G:\The Simpsons [Season 22] (2010-2011)\01. Elementary School Musical.mkvFormat : MatroskaFormat version : Version 4 / Version 2File size : 993 MiBDuration : 22mn 1sOverall bit rate : 6 306 KbpsMovie name : The Simpsons S22E01 Elementary School MusicalEncoded date : UTC 2015-07-13 10:46:17Writing application : mkvmerge v8.0.0 ('Til The Day That I Die') 64bitWriting library : libebml v1.3.1 + libmatroska v1.4.2Attachements : Cover.jpgDURATION : 00:21:57.173000000NUMBER_OF_FRAMES : 460NUMBER_OF_BYTES : 26638_STATISTICS_WRITING_APP : mkvmerge v8.0.0 ('Til The Day That I Die') 64bit_STATISTICS_WRITING_DATE_UT : 2015-07-13 10:46:17_STATISTICS_TAGS : BPS DURATION NUMBER_OF_FRAMES NUMBER_OF_BYTES
VideoID : 1Format : AVCFormat/Info : Advanced Video CodecFormat profile : High@L4Format settings, CABAC : YesFormat settings, ReFrames : 4 framesFormat settings, GOP : N=1Codec ID : V_MPEG4/ISO/AVCDuration : 22mn 1sBit rate : 4 836 KbpsWidth : 1 920 pixelsHeight : 1 080 pixelsDisplay aspect ratio : 16:9Frame rate mode : ConstantFrame rate : 23.976 fpsColor space : YUVChroma subsampling : 4:2:0Bit depth : 8 bitsScan type : ProgressiveBits/(Pixel*Frame) : 0.097Stream size : 762 MiB (77%)Language : EnglishDefault : YesForced : NoColor range : LimitedColor primaries : BT.709Transfer characteristics : BT.709Matrix coefficients : BT.709
Audio #1ID : 2Format : AC-3Format/Info : Audio Coding 3Mode extension : CM (complete main)Format settings, Endianness : BigCodec ID : A_AC3Duration : 22mn 1sBit rate mode : ConstantBit rate : 192 KbpsChannel(s) : 2 channelsChannel positions : Front: L RSampling rate : 48.0 KHzCompression mode : LossyStream size : 30.2 MiB (3%)Title : 2x2Language : RussianDefault : YesForced : No
Audio #2ID : 3Format : AC-3Format/Info : Audio Coding 3Mode extension : CM (complete main)Format settings, Endianness : BigCodec ID : A_AC3Duration : 22mn 1sBit rate mode : ConstantBit rate : 192 KbpsChannel(s) : 2 channelsChannel positions : Front: L RSampling rate : 48.0 KHzCompression mode : LossyStream size : 30.2 MiB (3%)Title : VO-productionLanguage : RussianDefault : NoForced : No
Audio #3ID : 4Format : AC-3Format/Info : Audio Coding 3Mode extension : CM (complete main)Format settings, Endianness : BigCodec ID : A_AC3Duration : 22mn 1sBit rate mode : ConstantBit rate : 192 KbpsChannel(s) : 2 channelsChannel positions : Front: L RSampling rate : 48.0 KHzCompression mode : LossyStream size : 30.2 MiB (3%)Title : NemFilmLanguage : RussianDefault : NoForced : No
Audio #4ID : 5Format : AC-3Format/Info : Audio Coding 3Mode extension : CM (complete main)Format settings, Endianness : BigCodec ID : A_AC3Duration : 22mn 1sBit rate mode : ConstantBit rate : 384 KbpsChannel(s) : 6 channelsChannel positions : Front: L C R, Side: L R, LFESampling rate : 48.0 KHzCompression mode : LossyStream size : 60.5 MiB (6%)Title : ДубльPRLanguage : RussianDefault : NoForced : No
Audio #5ID : 6Format : AC-3Format/Info : Audio Coding 3Mode extension : CM (complete main)Format settings, Endianness : BigCodec ID : A_AC3Duration : 22mn 1sBit rate mode : ConstantBit rate : 384 KbpsChannel(s) : 6 channelsChannel positions : Front: L C R, Side: L R, LFESampling rate : 48.0 KHzCompression mode : LossyStream size : 60.5 MiB (6%)Language : EnglishDefault : NoForced : No
Text #1ID : 7Format : UTF-8Codec ID : S_TEXT/UTF8Codec ID/Info : UTF-8 Plain TextTitle : NotabenoidLanguage : RussianDefault : NoForced : No
Text #2ID : 8Format : UTF-8Codec ID : S_TEXT/UTF8Codec ID/Info : UTF-8 Plain TextLanguage : EnglishDefault : NoForced : No

Список серий

01. Мюзикл начальной школы / Elementary School Musical
02. Инвестор Лиза / Loan-a Lisa
03. ДеньгоБарт / MoneyBart
04. Маленький домик ужасов на дереве 21 / Treehouse of Horror XXI
05. Лиза Симпсон, это не твоя жизнь / Lisa Simpson, This Isn’t Your Life
06. Дурак Монти / The Fool Monty

Скриншоты


Вне форума [Профиль] [ЛС]
Показать сообщения:    
Ответить на тему

Текущее время: Сегодня 12:34

Часовой пояс: GMT + 3



Вы не можете начинать темы
Вы не можете отвечать на сообщения
Вы не можете редактировать свои сообщения
Вы не можете удалять свои сообщения
Вы не можете голосовать в опросах
Вы не можете прикреплять файлы к сообщениям
Вы не можете скачивать файлы