Сегодня идет свободное скачивание без начисления Download

Симпсоны / The Simpsons / Сезон: 1 / Серии: 13 из 13 (Марк Керклэнд) [1989, Комедия, DVDRip] MVO + Rus Sub

Ответить на тему
 
Автор
Сообщение

Omen ®

Стаж: 4 года 10 месяцев

Сообщений: 190643

Торрент-статистика

Пост 14-Июл-2015 00:00

[Цитировать]

Симпсоны / The Simpsons
Страна: США
Жанр: Комедия
Продолжительность: 00:23:00
Год выпуска: 1989
Перевод: Профессиональный (многоголосый закадровый) Ren-TV
Русские субтитры: есть
Режиссёр: Марк Керклэнд
Описание: Симпсоны живут в вымышленном городе Спрингфилд, со своим обществом и историей. Гомер - отец семейства, который дает плохие советы и работает инспектором безопасности на атомной электростанции; Мардж - любящая мать и жена, старается сохранить спокойствие в семье; Барт - 10 летний хулиган; Лиза - философский 8-летний ребенок; и Мэгги - младенец, который общается посредством соски.
Список серий:
01. Симпсоны жарятся на открытом огне (Simpsons Roasting on an Open Fire)
02. Барт - гений (Bart the Genius)
03. Одиссея Гомера (Homer's Odyssey)
04. Нет места хуже дома (There's no Disgrace Like Home)
05. Барт - генерал (Bart the General)
06. Стонущая Лиза (Moaning Lisa)
07. Зов Симпсонов (The Call of the Simpsons)
08. Говорящая голова (The Telltale Head)
09. Жизнь на быстрой дорожке (Life on the Fast Lane)
10. Вечеринка Гомера (Homer's Night Out)
11. Гроздья гнева (The Crepes of Wrath)
12. Красти арестован (Krusty Gets Busted)
13. В один из прекрасных вечеров (Some Enchanted Evening)
Доп. информация:
сравнение с другими раздачами
http://screenshotcomparison.com/comparison/134985/picture:1
Ссылка на предыдущие и альтернативные раздачи: http:///*spam*//forum/tracker.php?f=924&nm...C%EF%F1%EE%ED%FB
Качество: DVDRip
Формат: MKV
Видео: 608x472, 23.976 fps, 1 234 Kbps, NTSC, 4:3
Аудио: Русский, AC3, 2 ch, 192 Kbps
Аудио 2: Английский, AC3, 6 ch, 448Kbps
Субтитры: Русские

Подробные технические данные

GeneralUnique ID : 225253343759040189361128292950826884810 (0xA976374A96CC93CB88437CB1795D1ECA)Complete name : I:\TV\The Simpsons\Season 1\The.Simpsons.S01E01.mkvFormat : MatroskaFormat version : Version 4 / Version 2File size : 318 MiBDuration : 23mn 12sOverall bit rate : 1 912 KbpsEncoded date : UTC 2015-06-25 16:54:57Writing application : mkvmerge v8.0.0 ('Til The Day That I Die') 64bitWriting library : libebml v1.3.1 + libmatroska v1.4.2Attachements : Cover.jpgDURATION : 00:23:05.098000000NUMBER_OF_FRAMES : 449NUMBER_OF_BYTES : 29581_STATISTICS_WRITING_APP : mkvmerge v8.0.0 ('Til The Day That I Die') 64bit_STATISTICS_WRITING_DATE_UT : 2015-06-25 16:54:57_STATISTICS_TAGS : BPS DURATION NUMBER_OF_FRAMES NUMBER_OF_BYTES
VideoID : 1Format : AVCFormat/Info : Advanced Video CodecFormat profile : High@L4.1Format settings, CABAC : YesFormat settings, ReFrames : 11 framesCodec ID : V_MPEG4/ISO/AVCDuration : 23mn 12sBit rate : 1 234 KbpsWidth : 608 pixelsHeight : 472 pixelsDisplay aspect ratio : 1.288Frame rate mode : ConstantFrame rate : 23.976 fpsColor space : YUVChroma subsampling : 4:2:0Bit depth : 8 bitsScan type : ProgressiveBits/(Pixel*Frame) : 0.179Stream size : 205 MiB (65%)Writing library : x264 core 146 r2538 121396cEncoding settings : cabac=1 / ref=11 / deblock=1:-1:-1 / analyse=0x3:0x133 / me=tesa / subme=10 / psy=1 / psy_rd=1.00:0.20 / mixed_ref=1 / me_range=32 / chroma_me=1 / trellis=2 / 8x8dct=1 / cqm=0 / deadzone=21,11 / fast_pskip=1 / chroma_qp_offset=-3 / threads=8 / lookahead_threads=2 / sliced_threads=0 / nr=0 / decimate=1 / interlaced=0 / bluray_compat=0 / constrained_intra=0 / bframes=10 / b_pyramid=2 / b_adapt=2 / b_bias=0 / direct=3 / weightb=1 / open_gop=0 / weightp=2 / keyint=250 / keyint_min=23 / scenecut=40 / intra_refresh=0 / rc_lookahead=60 / rc=crf / mbtree=1 / crf=18.0 / qcomp=0.60 / qpmin=0 / qpmax=69 / qpstep=4 / ip_ratio=1.40 / aq=1:1.00Language : EnglishDefault : YesForced : NoDURATION : 00:23:12.977000000NUMBER_OF_FRAMES : 33398NUMBER_OF_BYTES : 221248003_STATISTICS_WRITING_APP : mkvmerge v8.0.0 ('Til The Day That I Die') 64bit_STATISTICS_WRITING_DATE_UT : 2015-06-25 16:54:57_STATISTICS_TAGS : BPS DURATION NUMBER_OF_FRAMES NUMBER_OF_BYTES
Audio #1ID : 2Format : AC-3Format/Info : Audio Coding 3Mode extension : CM (complete main)Format settings, Endianness : BigCodec ID : A_AC3Duration : 23mn 12sBit rate mode : ConstantBit rate : 192 KbpsChannel(s) : 2 channelsChannel positions : Front: L RSampling rate : 48.0 KHzBit depth : 16 bitsCompression mode : LossyDelay relative to video : 3s 910msStream size : 31.9 MiB (10%)Title : RussianLanguage : RussianDefault : YesForced : No
Audio #2ID : 3Format : AC-3Format/Info : Audio Coding 3Mode extension : CM (complete main)Format settings, Endianness : BigCodec ID : A_AC3Duration : 23mn 12sBit rate mode : ConstantBit rate : 448 KbpsChannel(s) : 6 channelsChannel positions : Front: L C R, Side: L R, LFESampling rate : 48.0 KHzBit depth : 16 bitsCompression mode : LossyDelay relative to video : 19msStream size : 74.4 MiB (23%)Title : EnglishLanguage : EnglishDefault : NoForced : No
TextID : 4Format : UTF-8Codec ID : S_TEXT/UTF8Codec ID/Info : UTF-8 Plain TextTitle : RussianLanguage : RussianDefault : NoForced : No

Скриншоты

Вне форума [Профиль] [ЛС]
Показать сообщения:    
Ответить на тему

Текущее время: Сегодня 14:48

Часовой пояс: GMT + 3



Вы не можете начинать темы
Вы не можете отвечать на сообщения
Вы не можете редактировать свои сообщения
Вы не можете удалять свои сообщения
Вы не можете голосовать в опросах
Вы не можете прикреплять файлы к сообщениям
Вы не можете скачивать файлы