Сегодня идет свободное скачивание без начисления Download

Футурама (сезон 1) / Futurama (season 1) / Сезон: 1 / Серии: 4 из 13 (Мэтт Грейнинг / Matt Groening) [1999, Фантастика, комедия, драма, DVDRemux] MVO + Rus Sub

Ответить на тему
 
Автор
Сообщение

Omen ®

Стаж: 4 года 10 месяцев

Сообщений: 190643

Торрент-статистика

Пост 09-Июл-2015 00:01

[Цитировать]

Футурама (сезон 1) / Futurama (season 1)
Страна: США
Жанр: Фантастика, комедия, драма
Продолжительность: 21:35
Год выпуска: 1999
Перевод: Профессиональный [Русский, Многоголосый закадровый (Ren-TV)]
Русские субтитры: есть
Режиссёр: Мэтт Грейнинг / Matt Groening
Роли озвучивали: Билли Уэст, Кэти Сагал, Джон ДиМаджио, Тресс МакНилл, Морис ЛаМарш, Фил ЛаМарр, Лоурен Том, Дэвид Херман, Фрэнк Уэлкер, Бирн Оффатт, Кэт Сауси, Доун Льюис
Описание: Сериал начинается с того, что разносчик пиццы из Нью-Йорка Филипп Дж. Фрай случайно (как это произошло на самом деле, раскроется в 10 эпизоде 4-го сезона «Загадка Фрая») был заморожен в криогенной камере ровно в 00 часов 00 минут 00 секунд 1 января 2000 года и разморожен 1000 лет (365242,5 суток) спустя — 31 декабря 2999 года. Фрай оказывается в далёком будущем в городе Новый Нью-Йорк.
Список серий:
1ACV01 «Space Pilot 3000» (Космический пилот 3000)
1ACV02 «The Series Has Landed» (Сериал приземлился)
1ACV03 «I, Roommate» (Я, сосед)
1ACV04 «Love’s Labours Lost in Space» (Рабы любви, затерянные в космосе)
Доп. информация: Видео с лицензионного диска
Семпл: http://multi-up.com/1056687
Качество: DVDRemux
Формат: MKV
Видео: MPEG2 Video 720x576 (4:3) 25fps 5628kbps
Аудио: Dolby AC3 48000Hz stereo 192kbps [Русский, Многоголосый закадровый (Ren-TV)]
Аудио 2: MP3 48000Hz stereo 192kbps [Украинский, Дублированный (М1)]
Аудио 3: Dolby AC3 48000Hz stereo 192kbps [Английский, Оригинал]
Аудио 4: Dolby AC3 48000Hz stereo 96kbps [Английский, Комментарии]
Субтитры: Русские, английские

Подробные технические данные

ОбщееУникальный идентификатор : 223393649966246957695942263894366060854 (0xA8100D4EED90CF0280B280C416F98136)Полное имя : G:\Daniel\MyReal\Futurama - Season 1\Futurama.1ACV01.Space.Pilot.3000.mkvФормат : MatroskaВерсия формата : Version 4 / Version 2Размер файла : 810 МбайтПродолжительность : 21 м.Режим общего битрейта : ПеременныйОбщий поток : 5239 Кбит/секДата кодирования : UTC 2015-07-03 14:09:27Программа кодирования : mkvmerge v8.1.0 ('Psychedelic Postcard') 64bitБиблиотека кодирования : libebml v1.3.1 + libmatroska v1.4.2DURATION : 00:20:44.240000000NUMBER_OF_FRAMES : 268NUMBER_OF_BYTES : 9411_STATISTICS_WRITING_APP : mkvmerge v8.1.0 ('Psychedelic Postcard') 64bit_STATISTICS_WRITING_DATE_UTC : 2015-07-03 14:09:27_STATISTICS_TAGS : BPS DURATION NUMBER_OF_FRAMES NUMBER_OF_BYTES
ВидеоИдентификатор : 1Формат : MPEG VideoВерсия формата : Version 2Профиль формата : Main@MainПараметр BVOP формата : ДаПараметр матрицы формата : ВыборочнаяПараметр GOP формата : M=3, N=15Структура изображения : FrameИдентификатор кодека : V_MPEG2Идентификатор кодека/Информация : MPEG 1 or 2 VideoПродолжительность : 21 м.Вид битрейта : ПеременныйБитрейт : 4463 Кбит/секМаксимальный битрейт : 8000 Кбит/секШирина : 720 пикселейВысота : 576 пикселейСоотношение сторон : 4:3Режим частоты кадров : ПостоянныйЧастота кадров : 25,000 кадров/секСтандарт вещания : PALЦветовое пространство : YUVСубдискретизация насыщенности : 4:2:0Битовая глубина : 8 битТип развёртки : ЧересстрочнаяПорядок развёртки : Верхнее поле первоеМетод сжатия : С потерямиБит/(Пиксели*Кадры) : 0.430Временной код первого кадра : 00:59:58:00Оригинал временного кода : Group of pictures headerGOP, открыто/закрыто : ОткрытоGOP, открыто/закрыто на первом кадре : ЗакрытоРазмер потока : 690 Мбайт (85%)Заголовок : 1ACV01 «Space Pilot 3000» (Космический пилот 3000)Язык : EnglishDefault : ДаForced : Нет
Аудио #1Идентификатор : 2Формат : AC-3Формат/Информация : Audio Coding 3Расширение режима : CM (complete main)Параметр Endianness формата : BigИдентификатор кодека : A_AC3Продолжительность : 21 м.Вид битрейта : ПостоянныйБитрейт : 192 Кбит/секКаналы : 2 каналаРасположение каналов : Front: L RЧастота : 48,0 КГцМетод сжатия : С потерямиЗадержка видео : -16 мс.Размер потока : 29,7 Мбайт (4%)Заголовок : Многоголосый закадровый (Ren-TV)Язык : RussianDefault : НетForced : Нет
Аудио #2Идентификатор : 3Формат : MPEG AudioВерсия формата : Version 1Профиль формата : Layer 3Режим : Joint stereoРасширение режима : MS StereoИдентификатор кодека : A_MPEG/L3Идентификатор кодека/Подсказка : MP3Продолжительность : 21 м.Вид битрейта : ПостоянныйБитрейт : 192 Кбит/секКаналы : 2 каналаЧастота : 48,0 КГцМетод сжатия : С потерямиЗадержка видео : -16 мс.Размер потока : 29,6 Мбайт (4%)Заголовок : Дублированный (М1)Язык : UkrainianDefault : НетForced : Нет
Аудио #3Идентификатор : 4Формат : AC-3Формат/Информация : Audio Coding 3Профиль формата : Dolby DigitalРасширение режима : CM (complete main)Параметр Endianness формата : BigИдентификатор кодека : A_AC3Продолжительность : 21 м.Вид битрейта : ПостоянныйБитрейт : 192 Кбит/секКаналы : 2 каналаРасположение каналов : Front: L RЧастота : 48,0 КГцМетод сжатия : С потерямиЗадержка видео : -16 мс.Размер потока : 29,7 Мбайт (4%)Заголовок : ОригиналЯзык : EnglishDefault : ДаForced : Нет
Аудио #4Идентификатор : 5Формат : AC-3Формат/Информация : Audio Coding 3Профиль формата : Dolby DigitalРасширение режима : CM (complete main)Параметр Endianness формата : BigИдентификатор кодека : A_AC3Продолжительность : 21 м.Вид битрейта : ПостоянныйБитрейт : 96,0 Кбит/секКаналы : 2 каналаРасположение каналов : Front: L RЧастота : 48,0 КГцМетод сжатия : С потерямиЗадержка видео : -16 мс.Размер потока : 14,8 Мбайт (2%)Заголовок : КомментарииЯзык : EnglishDefault : НетForced : Нет
Текст #1Идентификатор : 6Формат : UTF-8Идентификатор кодека : S_TEXT/UTF8Идентификатор кодека/Информация : UTF-8 Plain TextЗаголовок : РусскиеЯзык : RussianDefault : НетForced : Нет
Текст #2Идентификатор : 7Формат : UTF-8Идентификатор кодека : S_TEXT/UTF8Идентификатор кодека/Информация : UTF-8 Plain TextЗаголовок : АнглийскиеЯзык : EnglishDefault : НетForced : Нет

Скриншоты

Вне форума [Профиль] [ЛС]
Показать сообщения:    
Ответить на тему

Текущее время: Сегодня 21:21

Часовой пояс: GMT + 3



Вы не можете начинать темы
Вы не можете отвечать на сообщения
Вы не можете редактировать свои сообщения
Вы не можете удалять свои сообщения
Вы не можете голосовать в опросах
Вы не можете прикреплять файлы к сообщениям
Вы не можете скачивать файлы