Сегодня идет свободное скачивание без начисления Download

Молодое правосудие: Вторжение / Young Justice: Invasion (Сезон: 2, серии: 1-6 из 20) (Сэм Реджистер / Sam Register) [2012, Мультсериал, Фантастика, Боевик, WEB-DL 720p]

Ответить на тему
 
Автор
Сообщение

ZM-SHOW ®

Стаж: 5 лет 9 месяцев

Сообщений: 31

Торрент-статистика

Пост 05-Май-2012 23:38

[Цитировать]

Молодое правосудие: Вторжение / Young Justice: Invasion Год выпуска: 2012
Страна: США
Жанр: Мультсериал, Фантастика, Боевик
Продолжительность: ~00:22:50 на серию
Озвучивание: Любительское (одноголосое закадровое) ZM
Перевод на русский: Aggie32-Режиссёр: Сэм Реджистер / Sam Register
Роли озвучивали: Джесс Маккартни Найтвинг, Камерон Боуэн Робин, Нолан Норт Супербой, Даника Маккеллар мисс Марсианка, Эрик Лопез Синий Жук, Юри Ловентал Лагун Бой, Элисон Стонер Бэтгерл, Мэй Уитман Чудо-Девушка, Майкл Тракко Адам Стрейндж, Стефани Николь Лемелин компьютер, Кэтрин Коберт, Лейси Чаберт Затанна, Брюс Гринвуд Бэтмен, Кевин Майкл Ричардсон Джон Джонзз, Джон Стюарт, Клэйфэйс, Мел Данкан, Майкл Т. Уайсс Капитан Атом, Дэвид Соболов Лобо, Тим Карри Дж. Гордон Годфри, Масаса Мойо Кэт Грант, Карен Бичер, Юджи Окумото Тсенг-Описание: Молодое Правосудие: Вторжение – второй сезон популярного сериала про молодых супергероев Вселенной DC.
После событий первого сезона прошло ровно пять лет, и за это время в Команде многое изменилось.
Герои все еще не знают, что же произошло с шестью членами Лиги Справедливости в течение 16 часов, когда почти все супергерои были под контролем Вэндала Сэвиджа.
В то же время инопланетяне тайно живут на планете Земля, и никто не знает, что они замышляют.

Молодое правосудие / Young Justice Сезон: 1
Качество: WEB-DL
Формат: MKV
Видео кодек: V_MPEG4
Аудио кодек: AC3
Видео: AVC, 1280x720, 23.976fps, ~3 899Kbps
Аудио 1 Rus: AC3, 48000Hz, 2.0, 192kbps
Аудио 2 Eng: AC3, 48000Hz, 2.0, 192kbps

Внимание!!! Раздача ведётся путём добавления новых серий

Внимание! Раздача ведётся путём добавления новых серий; при каждом добавлении создётся новый торрент. Чтобы начать докачку новой серии, пользователям необходимо сделать следующее:
(1) остановить скачивание
(2) удалить старый торрент у себя из клиента (старые серии удалять не надо)
(3) скачать новый торрент и запустить его у себя в клиенте вместо старого, при этом указать клиенту путь в старую папку куда и должно происходить скачивание новых серий. Ваш клиент при этом должен произвести хеширование (проверку) старой папки (если не производит сам - помогите ему сделать это), и будет докачивать только те серии, которых у вас ещё нет. Старые серии при этом не удаляются, а продолжают раздаваться! Eсли вы уже удалили старые серии, то предотвратить повторную закачку старых серий можно, отжав галочку в соответсвующих местах при запуске нового торрента.
По возможности, желательно не удалять старые серии как можно дольше, чтобы релизёр не столько продолжал раздавать старые серии, а смог сконцентрироваться на новых.

MediaInfo

General
Unique ID : 181711873863774280005443554964155266437 (0x88B46F14E3AB4F049D7BFB82AEC9F585)
Complete name : D:\Young Justice season 2 [720p]\[WTFilm]Young.Justice.S02E01.Happy.New.Year.720p.WEB-DL[ZM-SHOW].mkv
Format : Matroska
Format version : Version 2
File size : 681 MiB
Duration : 21mn 47s
Overall bit rate : 4 370 Kbps
Encoded date : UTC 2012-04-30 20:45:31
Writing application : mkvmerge v5.0.1 ('Es ist Sommer') built on Oct 9 2011 11:55:43
Writing library : libebml v1.2.2 + libmatroska v1.3.0
Video #1
ID : 1
Format : AVC
Format/Info : Advanced Video Codec
Format profile : High@L3.1
Format settings, CABAC : No
Format settings, ReFrames : 2 frames
Codec ID : V_MPEG4/ISO/AVC
Duration : 21mn 47s
Bit rate : 3 899 Kbps
Width : 1 280 pixels
Height : 720 pixels
Display aspect ratio : 16:9
Frame rate : 23.976 fps
Color space : YUV
Chroma subsampling : 4:2:0
Bit depth : 8 bits
Scan type : Progressive
Bits/(Pixel*Frame) : 0.176
Stream size : 608 MiB (89%)
Language : English
Default : Yes
Forced : No
Color primaries : BT.709-5, BT.1361, IEC 61966-2-4, SMPTE RP177
Transfer characteristics : BT.709-5, BT.1361
Matrix coefficients : BT.709-5, BT.1361, IEC 61966-2-4 709, SMPTE RP177
Audio #2
ID : 2
Format : AC-3
Format/Info : Audio Coding 3
Mode extension : CM (complete main)
Codec ID : A_AC3
Duration : 21mn 47s
Bit rate mode : Constant
Bit rate : 192 Kbps
Channel(s) : 2 channels
Channel positions : Front: L R
Sampling rate : 48.0 KHz
Bit depth : 16 bits
Compression mode : Lossy
Stream size : 29.9 MiB (4%)
Title : ZM-SHOW
Language : Russian
Default : Yes
Forced : No
Audio #3
ID : 3
Format : AC-3
Format/Info : Audio Coding 3
Mode extension : CM (complete main)
Codec ID : A_AC3
Duration : 21mn 47s
Bit rate mode : Constant
Bit rate : 192 Kbps
Channel(s) : 2 channels
Channel positions : Front: L R
Sampling rate : 48.0 KHz
Bit depth : 16 bits
Compression mode : Lossy
Stream size : 29.9 MiB (4%)
Language : English
Default : No
Forced : No

Скриншоты

             
Релиз подготовлен группой ZM-SHOW


Последний раз редактировалось: ZM-SHOW (2012-06-08 07:39), всего редактировалось 2 раз(а)
Вне форума [Профиль] [ЛС]

ZM-SHOW ®

Стаж: 5 лет 9 месяцев

Сообщений: 31

Торрент-статистика

Пост 27-Май-2012 09:29 (спустя 21 день)

[Цитировать]

Добавлена 2, 3, 4 серия
Вне форума [Профиль] [ЛС]

ZM-SHOW ®

Стаж: 5 лет 9 месяцев

Сообщений: 31

Торрент-статистика

Пост 08-Июн-2012 07:40 (спустя 11 дней)

[Цитировать]

Добавлена 5, 6 серия
Вне форума [Профиль] [ЛС]
Показать сообщения:    
Ответить на тему

Текущее время: Сегодня 06:09

Часовой пояс: GMT + 3



Вы не можете начинать темы
Вы не можете отвечать на сообщения
Вы не можете редактировать свои сообщения
Вы не можете удалять свои сообщения
Вы не можете голосовать в опросах
Вы не можете прикреплять файлы к сообщениям
Вы не можете скачивать файлы