Today is a free download without charge Download

NG. Анаконда: Тихий убийца / Anaconda: Silent Killer (2014) HDTVRip [H.264/720p]

Reply to topic
 
Author
Message

Omen ®

Longevity: 7 years 1 month

Posts: 181090

Торрент-статистика

Post 21-Jun-2015 22:53

[Quote]

NG. Анаконда: Тихий убийца
Anaconda: Silent Killer
- Телекомпания: NAT GEO WILD HD
Жанр: Документальный
Описание:
Узнайте правду об одной из крупнейших и при этом самых скрытных змей на Земле. Оригинальное поведение и неожиданные открытия, запечатлённые камерой, станут штрихами в поразительном и пленительном портрете настоящей анаконды, который опровергнет множество популярных неверных представлений о «гигантских змеях-киллерах» и покажет ошеломляющие новые факты о мирной и благородной, а иногда и заботливой стороне этой таинственной культовой змеи. Совершите путешествие вглубь джунглей Амазонки, чтобы узнать правду об этой легендарной змее.
Продолжительность: 00:43:59
Качество видео: HDTVRip
Перевод: Одноголосый закадровый, профессиональный
Видео: AVC/H.264, 1280х720, ~15.4 Mbps
Аудио: AC3, 2 ch, 192 kbps
Сэмпл: Скачать

Mediainfo:

Код:
General
Unique ID                   : 233591418467995132995413443885316740749 (0xAFBC121D313ED5E691626826CE08968D)
Complete name               : D:\Anaconda_Silent Killer_720p.mkv
Format                      : Matroska
Format version              : Version 4 / Version 2
File size                   : 4.75 GiB
Duration                    : 43mn 58s
Overall bit rate mode       : Constant
Overall bit rate            : 15.5 Mbps
Movie name                  : [l0ngb0y_4_nnm]
Encoded date                : UTC 2015-05-12 21:38:16
Writing application         : mkvmerge v7.8.0 ('River Man') 32bit built on Mar 27 2015 16:18:02
Writing library             : Lavf55.33.100
Attachements                : cover.jpg
Video
ID                          : 1
Format                      : AVC
Format/Info                 : Advanced Video Codec
Format profile              : [url=mailto:High@L3.2]High@L3.2[/url]
Format settings, CABAC      : Yes
Format settings, ReFrames   : 1 frame
Format settings, GOP        : M=1, N=25
Codec ID                    : V_MPEG4/ISO/AVC
Duration                    : 43mn 58s
Bit rate mode               : Constant
Bit rate                    : 15.4 Mbps
Width                       : 1 280 pixels
Height                      : 720 pixels
Display aspect ratio        : 16:9
Frame rate mode             : Constant
Frame rate                  : 25.000 fps
Color space                 : YUV
Chroma subsampling          : 4:2:0
Bit depth                   : 8 bits
Scan type                   : Progressive
Bits/(Pixel*Frame)          : 0.667
Stream size                 : 4.60 GiB (97%)
Default                     : Yes
Forced                      : No
_STATISTICS_WRITING_APP     : mkvmerge v7.9.0 ('Birds') 64bit
_STATISTICS_WRITING_DATE_UT : 2015-05-12 21:38:16
_STATISTICS_TAGS            : BPS DURATION NUMBER_OF_FRAMES NUMBER_OF_BYTES
DURATION                    : 00:43:58.975000000
NUMBER_OF_FRAMES            : 82468
NUMBER_OF_BYTES             : 63335424
Audio
ID                          : 2
Format                      : AC-3
Format/Info                 : Audio Coding 3
Mode extension              : CM (complete main)
Format settings, Endianness : Big
Codec ID                    : A_AC3
Duration                    : 43mn 58s
Bit rate mode               : Constant
Bit rate                    : 192 Kbps
Channel(s)                  : 2 channels
Channel positions           : Front: L R
Sampling rate               : 48.0 KHz
Compression mode            : Lossy
Stream size                 : 60.4 MiB (1%)
Title                       : проф одноголосый
Language                    : Russian
Default                     : Yes
Forced                      : No
_STATISTICS_WRITING_APP     : mkvmerge v7.9.0 ('Birds') 64bit
_STATISTICS_WRITING_DATE_UT : 2015-05-12 21:38:16
_STATISTICS_TAGS            : BPS DURATION NUMBER_OF_FRAMES NUMBER_OF_BYTES
DURATION                    : 00:43:58.960000000
NUMBER_OF_FRAMES            : 65974
NUMBER_OF_BYTES             : 5039557601
Скриншоты:
       
Other forum [Profile] [PM]
Display posts from previous:    
Reply to topic

The time now is: Today 22:01

All times are GMT + 3 Hours



You cannot post new topics in this forum
You cannot reply to topics in this forum
You cannot edit your posts in this forum
You cannot delete your posts in this forum
You cannot vote in polls in this forum
You cannot attach files in this forum
You cannot download files in this forum