Today is a free download without charge Download

Меч 2 (Пролог + Серии 01—20 из 20) (Алексей Луканев) [2015, криминал, SATRip]

Reply to topic
 
Author
Message

DED ®

Gender:

Longevity: 7 years 1 month

Posts: 4241

Location: СССР

Торрент-статистика

Post 15-Jun-2015 18:54

[Quote]

--Меч 2--
  • Год выпуска: 2015
  • Страна: Россия / «DixiMedia»
  • Жанр: криминал
  • Продолжительность: Пролог - 00:22:51 + 20 х ~00:45:00
  • Перевод: Не требуется-
  • Режиссёр: Алексей Луканев-
  • В ролях: Эдуард Флёров, Роман Курцын, Дарья Повереннова, Александр Фисенко, Нина Гогаева, Виктория Фишер, Владислав Павлов, Максим Щеголев, Тимур Ефременков, Анна Шевченко...-
  • Карательная организация «Меч», созданная для борьбы с преступниками, ушедшими от правосудия, постепенно восстанавливается. Максим Калинин, получивший тяжелые ранения, постепенно приходит в себя и собирает новую команду. Часть ее — знакомые люди, часть — новые, не менее преданные делу герои. Вместе они снова будут противостоять преступности на улицах Москвы. Участники «Меча» по-прежнему находятся на грани: с одной стороны, криминальный мир, который объявляет огромные деньги за их поимку, с другой — правоохранительные органы, которые охотятся на «оборотней».-
  • Премьера в России: 15 июня 2015 (НТВ)-- --
  • Качество видео: SATRip
  • Формат видео: AVI
  • Видео кодек: XviD
  • Аудио кодек: AC3
  • Видео: 720x400 (1.80:1), 25.000 fps, XviD MPEG-4, ~1600 kbps avg, 0.215 bit/pixel
  • Аудио: 48.0 kHz, AC3 Dolby Digital, 2/0 (L,R) ch, ~192.00 kbps avg
  • Субтитры: нет
--

Внимание ! Раздача ведётся путём добавления новых серий !!!

Внимание! Раздача ведётся путём добавления новых серий; при каждом добавлении создаётся новый торрент. Чтобы начать докачку новой серии, пользователям необходимо сделать следующее:
(1) остановить скачивание,раздачу,
(2) удалить старый торрент у себя из клиента (старые серии удалять не надо),
(3) скачать новый торрент и запустить его у себя в клиенте вместо старого, при этом указать клиенту путь в старую папку куда и должно происходить скачивание новых серий.
Ваш клиент при этом должен произвести хеширование (проверку) старой папки (если не производит сами - помогите ему сделать это), и будет докачивать только те серии которых у вас ещё нет. Старые серии при этом не удаляются, а продолжают раздаваться!
Eсли вы уже удалили старые серии, то предотвратить повторную закачку старых серий можно, отжав галочку в соответствующих местах при запуске нового торрента. По возможности, желательно не удалять старые серии как можно дольше чтобы релизёр не столько продолжал раздавать старые серии, а смог сконцентрироваться на новых.

Media Info

General
Complete name : W:\O.S.A.\Торренты\Завершенные торренты\Mech.2.2015.XviD.SATRip.GeneralFilm\01.Serija.avi
Format : AVI
Format/Info : Audio Video Interleave
File size : 556 MiB
Duration : 44mn 22s
Overall bit rate : 1 752 Kbps
Writing application : VirtualDubMod 1.5.10.3 | www.virtualdub-fr.org || (build 2550/release)
Writing library : VirtualDubMod build 2550/release
Video
ID : 0
Format : MPEG-4 Visual
Format profile : Advanced Simple@L5
Format settings, BVOP : 1
Format settings, QPel : No
Format settings, GMC : No warppoints
Format settings, Matrix : Default (H.263)
Codec ID : XVID
Codec ID/Hint : XviD
Duration : 44mn 22s
Bit rate : 1 550 Kbps
Width : 720 pixels
Height : 400 pixels
Display aspect ratio : 16:9
Frame rate : 25.000 fps
Color space : YUV
Chroma subsampling : 4:2:0
Bit depth : 8 bits
Scan type : Progressive
Compression mode : Lossy
Bits/(Pixel*Frame) : 0.215
Stream size : 492 MiB (88%)
Writing library : XviD 73
Audio
ID : 1
Format : AC-3
Format/Info : Audio Coding 3
Mode extension : CM (complete main)
Codec ID : 2000
Duration : 44mn 22s
Bit rate mode : Constant
Bit rate : 192 Kbps
Channel(s) : 2 channels
Channel positions : Front: L R
Sampling rate : 48.0 KHz
Bit depth : 16 bits
Compression mode : Lossy
Stream size : 60.9 MiB (11%)
Alignment : Split accross interleaves
Interleave, duration : 40 ms (1.00 video frame)
Interleave, preload duration : 500 ms

Скриншоты

         
-- --25.06.2015 добавлены серии 19—20 !!!--

_________________

==============================
IGNOSCITO SAEPE ALTERI, NUNQUAM TIBI
Other forum [Profile] [PM]
Display posts from previous:    
Reply to topic

The time now is: Today 16:41

All times are GMT + 3 Hours



You cannot post new topics in this forum
You cannot reply to topics in this forum
You cannot edit your posts in this forum
You cannot delete your posts in this forum
You cannot vote in polls in this forum
You cannot attach files in this forum
You cannot download files in this forum