Сегодня идет свободное скачивание без начисления Download

Том и Джерри: Сказки / Приключения Тома и Джерри / Истории о Томе и Джерри / Tom and Jerry Tales / Сезон 1 и 2 / Серии 24 из 26 (Дуглас МакКарти / Douglas McCarthy) [2006, Приключения, Комедия, Семейный] DUB (Boomerang)

Ответить на тему
 
Автор
Сообщение

Omen ®

Стаж: 5 лет

Сообщений: 190529

Торрент-статистика

Пост 23-Май-2015 12:00

[Цитировать]

Том и Джерри: Сказки / Tom and Jerry Tales Страна: США
Жанр: мультфильм, комедия, семейный
Продолжительность: 00:22:00
Год выпуска: 2006
Перевод: Профессиональный (дублированный) (студия "Пифагор", 2013 год)
Режиссёр: Дуглас МакКарти, Спайк Брандт, Тони Червоне
Роли озвучивали: Дон Браун, Сэм Винсент, Джэйк Д. Смит, Майкл Донован и другие
Описание: Кот Том и мышонок Джерри вызывали смех и покоряли сердца детей и взрослых всего мира на протяжении десятилетий. До сих пор эти два мультгероя-суперзвезды с неизменным успехом поражают зрителей своим мастерством перевоплощения, новыми изобретательными трюками и розыгрышами. Следите за уморительными проделками неуловимой парочки в первоклассной коллекции незабываемых мультяшек! Вы узнаете об изощренных ловушках, которые подстраивают друг другу веселые герои, и отправитесь вместе с ними в незабываемое приключение — лучшее в истории анимационного кино!
Список серий:
1 сезон (2006-2007)
1 Tiger Cat / Feeding Time / Polar Peril
2 Joy Riding Jokers / Cat Got Your Luggage? / City Dump Chumps
3 Way-Off Broadway / Egg Beats / Cry Uncle
4 Bats What I Like About the South / Fraidy Cat Scat / Tomb It May Concern
5 Din-O-Sores / Freaky Tiki / Prehisterics
6 Digital Dilemma / Hi, Robot / Tomcat Jetpack
7 Fire Breathing Tom Cat / Medieval Menace / The Itch
8 Ho, Ho Horrors / Doggone Hill Hog / Northern Light Fish Fight
9 Cat Nebula / Martian Mice / Spaced Out Cat
10 Octo Suave / Beach Bully Bingo / Treasure Map Scrap
11 Destruction Junction / Battle of the Power Tools / Jackhammered Cat
12 Tin Cat of Tomorrow / Beefcake Tom / Tom Cat, Superstar
13 Piranha Be Loved (By You) / Spook House Mouse / Abracadumb
2 сезон (2007-2008)
14 More Powers to You / Catch Me Though You Can't / Power Tom
15 Zent Out of Shape / I Dream of Meanie / Which Witch!
16 Don't Bring Your Pet to School Day / Cat Show Catastrophe / The Cat Whisperer with Casper Lombardo
17 Adventures in Penguin Sitting / Cat of Prey / Jungle Love

18 Invasion of the Body Slammers / Monster Con / Over the River and Boo the Woods
19 Xtreme Trouble / A Life Less Guarded / Sasquashed
20 Summer Squashing / League of Cats / Little Big Mouse
21 Bend It Like Thomas / Endless Bummer / Game Set Match
22 The Declaration of Independunce / Kitty Hawked / 24 Karat Kat
23 Hockey Schtick / Snow Brawl / Snow Mouse
24 DJ Jerry / Kitty Cat Blues / Flamenco Fiasco
25 You're Lion / Kangadoofus / Monkey Chow
26 Game of Mouse & Cat / Babysitting Blues / Catfish Follies
Дополнительно: Эпизодов выделеных серым цветом в раздаче нет, если канал их покажет, обязательно добавлю в раздачу

Качество: DVB
Формат: : MPEG
Видео: MPEG Video, 704x576, 25.000 fps, 3 062 Kbps
Аудио: MPEG Audio, 48.0 KHz, 2 channels, 256 Kbps [Русский]

Подробные технические данные

GeneralComplete name : H:\Мультфильмы\Том и Джерри Сказки (Бумеранг)\Том и Джерри. Сказки (Бумеранг. Дубляж 2013)\Том и Джерри. Сказки 11.mpgFormat : MPEG-PSFile size : 494 MiBDuration : 21mn 30sOverall bit rate : 3 212 Kbps
VideoID : 224 (0xE0)Format : MPEG VideoFormat version : Version 2Format profile : Main@MainFormat settings, BVOP : YesFormat settings, Matrix : DefaultDuration : 21mn 30sBit rate mode : VariableBit rate : 2 893 KbpsNominal bit rate : 9 500 KbpsWidth : 704 pixelsHeight : 576 pixelsDisplay aspect ratio : 4:3Frame rate : 25.000 fpsStandard : PALColor space : YUVChroma subsampling : 4:2:0Bit depth : 8 bitsScan type : InterlacedScan order : Top Field FirstCompression mode : LossyBits/(Pixel*Frame) : 0.285Stream size : 445 MiB (90%)
AudioID : 192 (0xC0)Format : MPEG AudioFormat version : Version 1Format profile : Layer 2Duration : 21mn 30sBit rate mode : ConstantBit rate : 256 KbpsChannel(s) : 2 channelsSampling rate : 48.0 KHzCompression mode : LossyStream size : 39.4 MiB (8%)

Скриншоты

Вне форума [Профиль] [ЛС]
Похожие темы
Форум Тема Автор Торрент Отв. Посл. сообщение
./templates/default/images/folder_dl.gif Обучающее видео Сергей Брежнев | Мастер-класс по работе с цветом и тонировке (2014) PCRec (H.264) Omen
2 | 0

0 | 2117

51

2014-10-19 12:32
Omen Последнее
Показать сообщения:    
Ответить на тему

Текущее время: Сегодня 12:22

Часовой пояс: GMT + 3



Вы не можете начинать темы
Вы не можете отвечать на сообщения
Вы не можете редактировать свои сообщения
Вы не можете удалять свои сообщения
Вы не можете голосовать в опросах
Вы не можете прикреплять файлы к сообщениям
Вы не можете скачивать файлы