Сегодня идет свободное скачивание без начисления Download

Том и Джерри: Сказки / Приключения Тома и Джерри / Истории о Томе и Джерри / Tom and Jerry Tales / Сезон 2 / Серии 10 из 13 (Дуглас МакКарти / Douglas McCarthy) [2006, Приключения, Комедия, Семейный] MVO (Бибигон)

Ответить на тему
 
Автор
Сообщение

Omen ®

Стаж: 5 лет

Сообщений: 190530

Торрент-статистика

Пост 23-Май-2015 12:00

[Цитировать]

Истории о Томе и Джерри / Tom and Jerry Tales Страна: США
Жанр: мультфильм, комедия, семейный
Продолжительность: 00:22:00
Год выпуска: 2006
Перевод: Профессиональный (многоголосый) (озвучен по заказу ВГТРК, в 2009 году)
Режиссёр: Дуглас МакКарти, Спайк Брандт, Тони Червоне
Роли озвучивали: Дон Браун, Сэм Винсент, Джэйк Д. Смит, Майкл Донован и другие
Описание: Кот Том и мышонок Джерри вызывали смех и покоряли сердца детей и взрослых всего мира на протяжении десятилетий. До сих пор эти два мультгероя-суперзвезды с неизменным успехом поражают зрителей своим мастерством перевоплощения, новыми изобретательными трюками и розыгрышами. Следите за уморительными проделками неуловимой парочки в первоклассной коллекции незабываемых мультяшек! Вы узнаете об изощренных ловушках, которые подстраивают друг другу веселые герои, и отправитесь вместе с ними в незабываемое приключение — лучшее в истории анимационного кино!
Список серий:
2 сезон (2007-2008)
14 More Powers to You / Catch Me Though You Can't / Power Tom
15 Zent Out of Shape / I Dream of Meanie / Which Witch!
16 Don't Bring Your Pet to School Day / Cat Show Catastrophe / The Cat Whisperer with Casper Lombardo
17 Adventures in Penguin Sitting / Cat of Prey / Jungle Love
18 Invasion of the Body Slammers / Monster Con / Over the River and Boo the Woods
19 Xtreme Trouble / A Life Less Guarded / Sasquashed
20 Summer Squashing / League of Cats / Little Big Mouse
21 Bend It Like Thomas / Endless Bummer / Game Set Match
22 The Declaration of Independunce / Kitty Hawked / 24 Karat Kat
23 Hockey Schtick / Snow Brawl / Snow Mouse
24 DJ Jerry / Kitty Cat Blues / Flamenco Fiasco
25 You're Lion / Kangadoofus / Monkey Chow
26 Game of Mouse & Cat / Babysitting Blues / Catfish Follies

Дополнительно: Эпизодов выделеных серым цветом в раздаче нет, если у кого-то остались записи с Бибигона, буду раз дополнить раздачу.
Качество: DVB
Формат: : MPEG
Видео: MPEG Video, 544x576, 25.000 fps, 2 436 Kbps
Аудио: MPEG Audio, 48.0 KHz, 2 channels, 192 Kbps [Русский]
[/url] [/url]

Подробные технические данные

GeneralComplete name : H:\Записи\Истории Тома и Джерри (Бибигон)\Истории о Томе и Джерри - Сезон 2 Серия 14.MPGFormat : MPEG-PSFile size : 345 MiBDuration : 18mn 24sOverall bit rate : 2 616 KbpsWriting library : encoded by TMPGEnc MPEG Editor 2.0 Version. 2.2.8.177
VideoID : 224 (0xE0)Format : MPEG VideoFormat version : Version 2Format profile : Main@MainFormat settings, BVOP : YesFormat settings, Matrix : DefaultFormat settings, GOP : M=3, N=18Duration : 18mn 24sBit rate mode : VariableBit rate : 2 436 KbpsNominal bit rate : 15.0 MbpsWidth : 544 pixelsHeight : 576 pixelsDisplay aspect ratio : 4:3Frame rate : 25.000 fpsStandard : PALColor space : YUVChroma subsampling : 4:2:0Bit depth : 8 bitsScan type : InterlacedScan order : Top Field FirstCompression mode : LossyBits/(Pixel*Frame) : 0.311Stream size : 321 MiB (93%)Writing library : TMPGEnc MPEG Editor 2.2.8.177
AudioID : 192 (0xC0)Format : MPEG AudioFormat version : Version 1Format profile : Layer 2Duration : 18mn 24sBit rate mode : ConstantBit rate : 128 KbpsChannel(s) : 2 channelsSampling rate : 48.0 KHzCompression mode : LossyStream size : 16.9 MiB (5%)

Скриншоты

Вне форума [Профиль] [ЛС]
Показать сообщения:    
Ответить на тему

Текущее время: Сегодня 02:17

Часовой пояс: GMT + 3



Вы не можете начинать темы
Вы не можете отвечать на сообщения
Вы не можете редактировать свои сообщения
Вы не можете удалять свои сообщения
Вы не можете голосовать в опросах
Вы не можете прикреплять файлы к сообщениям
Вы не можете скачивать файлы