Сегодня идет свободное скачивание без начисления Download

Том и Джерри: Сказки / Приключения Тома и Джерри / Истории о Томе и Джерри / Tom and Jerry Tales / Сезон 2 / Серии 13 из 13 (Дуглас МакКарти / Douglas McCarthy) [2006, Приключения, Комедия, Семейный] MVO (ТНТ)

Ответить на тему
 
Автор
Сообщение

Omen ®

Стаж: 5 лет

Сообщений: 190529

Торрент-статистика

Пост 23-Май-2015 12:00

[Цитировать]

Том и Джерри: Сказки / Tom and Jerry Tales Страна: США
Жанр: мультфильм, комедия, семейный
Продолжительность: 00:22:00
Год выпуска: 2006
Перевод: Профессиональный (многоголосый) (озвучен по заказу ТНТ, в 2011 году)
Режиссёр: Дуглас МакКарти, Спайк Брандт, Тони Червоне
Роли озвучивали: Дон Браун, Сэм Винсент, Джэйк Д. Смит, Майкл Донован и другие
Описание: Кот Том и мышонок Джерри вызывали смех и покоряли сердца детей и взрослых всего мира на протяжении десятилетий. До сих пор эти два мультгероя-суперзвезды с неизменным успехом поражают зрителей своим мастерством перевоплощения, новыми изобретательными трюками и розыгрышами. Следите за уморительными проделками неуловимой парочки в первоклассной коллекции незабываемых мультяшек! Вы узнаете об изощренных ловушках, которые подстраивают друг другу веселые герои, и отправитесь вместе с ними в незабываемое приключение — лучшее в истории анимационного кино!
Список серий:
2 сезон (2007-2008)
14 More Powers to You / Catch Me Though You Can't / Power Tom
15 Zent Out of Shape / I Dream of Meanie / Which Witch!
16 Don't Bring Your Pet to School Day / Cat Show Catastrophe / The Cat Whisperer with Casper Lombardo
17 Adventures in Penguin Sitting / Cat of Prey / Jungle Love
18 Invasion of the Body Slammers / Monster Con / Over the River and Boo the Woods
19 Xtreme Trouble / A Life Less Guarded / Sasquashed
20 Summer Squashing / League of Cats / Little Big Mouse
21 Bend It Like Thomas / Endless Bummer / Game Set Match
22 The Declaration of Independunce / Kitty Hawked / 24 Karat Kat
23 Hockey Schtick / Snow Braw / Snow Mouse
24 DJ Jerry / Kitty Cat Blues / Flamenco Fiasco
25 You're Lion / Kangadoofus / Monkey Chow
26 Game of Mouse & Cat / Babysitting Blues / Catfish Follies
Качество: DVB
Формат: : MPEG
Видео: MPEG Video, 704x576, 25.000 fps, 3 062 Kbps
Аудио: MPEG Audio, 48.0 KHz, 2 channels, 192 Kbps [Русский]

Релиз:

Подробные технические данные

GeneralComplete name : H:\Записи\Том и Джерри (ТНТ. 2011)\Том и Джерри Сезон 2 Эпизод 14.mpgFormat : MPEG-PSFile size : 392 MiBDuration : 21mn 41sOverall bit rate : 2 526 Kbps
VideoID : 224 (0xE0)Format : MPEG VideoFormat version : Version 2Format profile : Main@MainFormat settings, BVOP : YesFormat settings, Matrix : DefaultDuration : 21mn 41sBit rate mode : VariableBit rate : 2 283 KbpsNominal bit rate : 15.0 MbpsWidth : 704 pixelsHeight : 576 pixelsDisplay aspect ratio : 4:3Frame rate : 25.000 fpsStandard : PALColor space : YUVChroma subsampling : 4:2:0Bit depth : 8 bitsCompression mode : LossyBits/(Pixel*Frame) : 0.225Stream size : 354 MiB (90%)
AudioID : 192 (0xC0)Format : MPEG AudioFormat version : Version 1Format profile : Layer 2Mode extension : Intensity Stereo + MS StereoDuration : 21mn 41sBit rate mode : ConstantBit rate : 192 KbpsChannel(s) : 1 channelSampling rate : 48.0 KHzCompression mode : LossyStream size : 29.8 MiB (8%)

Скриншоты

Вне форума [Профиль] [ЛС]
Похожие темы
Форум Тема Автор Торрент Отв. Посл. сообщение
./templates/default/images/folder_dl.gif Обучающее видео Сергей Брежнев | Мастер-класс по работе с цветом и тонировке (2014) PCRec (H.264) Omen
1 | 0

0 | 2119

51

2014-10-19 12:32
Omen Последнее
Показать сообщения:    
Ответить на тему

Текущее время: Сегодня 08:35

Часовой пояс: GMT + 3



Вы не можете начинать темы
Вы не можете отвечать на сообщения
Вы не можете редактировать свои сообщения
Вы не можете удалять свои сообщения
Вы не можете голосовать в опросах
Вы не можете прикреплять файлы к сообщениям
Вы не можете скачивать файлы