Сегодня идет свободное скачивание без начисления Download

Принцесса Лилифи / Prinzessin Lillifee / Сезон: 1 / Серии: 1-26 из 26 (Андрэа Преда / Andrea Preda, Роберт Шлунце / Robert Schlunze) [2012, Мультсериал, детский, семейный, Германия, SATRip] Dub

Ответить на тему
 
Автор
Сообщение

Clavik ®

Пол:

Стаж: 4 года 1 месяц

Сообщений: 2445

Откуда: Украина

Торрент-статистика

Пост 17-Май-2015 22:03

[Цитировать]

-Принцесса Лилифи / Prinzessin Lillifee -Страна: Германия, Caligari Film, Wunde
Жанр: Мультсериал, детский, семейный
Продолжительность: 26 х 00:12:10
Год выпуска: 2012
Перевод: Профессиональный (дублированный)
Субтитры: отсутствуют
Режиссёр: Андрэа Преда / Andrea Preda, Роберт Шлунце / Robert Schlunze
Описание: Очаровательная принцесса Лилифи приглашает тебя в сказку! Лилифи — юная белокурая принцесса, правительница Розового королевства. Она мечтает превратить его в самую красивую и благополучную страну на земле, жители которой всегда будут счастливы. Однако эта задача не так проста, как кажется на первый взгляд. В каждом эпизоде мультсериала принцесса узнает, что магии и красоты не всегда достаточно для создания мира и гармонии. Будучи правительницей, Лилифи обязана действовать на благо своих подданных и использовать при этом все свои лучшие качества: доброту, оптимизм, изобретательность, смелость, целеустремленность и любовь к прекрасному. Следуя за своей мечтой, Лилифи сможет превратить Розовое королевство в счастливую и вечно цветущую страну.
Качество: SATRip
Формат: AVI
Видео кодек: XVID
Аудио кодек: AC-3
Видео: XviD, 1500 Kbps, 720х400, 16:9, 25.000 fps, 8 bits, 0.208 Bits/Pixel
Аудио: AC-3, 192 Kbps, 2 channels, Front: L R, 48.0 KHz

Список серий

01. Заколдованный пикник
02. Хрустальный подарок
03. Долгожданное ненастье
04. Заботливое дерево
05. Огненный фейерверк
06. Бескорыстный эльф
07. Цирковая мозаика
08. Приключения в зазеркалье
09. Ловушка для радуги
10. Заколдованная песня
11. Замёрзший огонь
12. Начинающая волшебница
13. Подводное королевство
14. Воздушная прогулка
15. Романтичные кувшинки
16. Звезда в подарок
17. Невидимая магия
18. Услужливый ёжик
19. Бесстрашный лётчик
20. Похититель снов
21. Потерянная память
22. Маленькие радости
23. Бал не для всех
24. Везучий поросёнок
25. Радость на двоих
26. Забывчивый колдун

Медиаинфо

General
Complete name : Принцесса Лилифи.2011.XviD.SATRip\01. Заколдованный пикник.avi
Format : AVI
Format/Info : Audio Video Interleave
File size : 148 MiB
Duration : 12mn 11s
Overall bit rate : 1 702 Kbps
Director : SATRip by Thunder
Writing application : VirtualDubMod 1.5.10.3 | www.virtualdub-fr.org || (build 2550/release)
Original source form/Name : Cartoon
Video
ID : 0
Format : MPEG-4 Visual
Format profile : Advanced Simple@L5
Format settings, BVOP : 2
Format settings, QPel : No
Format settings, GMC : No warppoints
Format settings, Matrix : Default (H.263)
Codec ID : XVID
Codec ID/Hint : XviD
Duration : 12mn 11s
Bit rate : 1 500 Kbps
Width : 720 pixels
Height : 400 pixels
Display aspect ratio : 16:9
Frame rate : 25.000 fps
Color space : YUV
Chroma subsampling : 4:2:0
Bit depth : 8 bits
Scan type : Progressive
Compression mode : Lossy
Bits/(Pixel*Frame) : 0.208
Stream size : 131 MiB (88%)
Writing library : XviD 1.2.1 (UTC 2008-12-04)
Audio
ID : 1
Format : AC-3
Format/Info : Audio Coding 3
Mode extension : CM (complete main)
Format settings, Endianness : Big
Codec ID : 2000
Duration : 12mn 11s
Bit rate mode : Constant
Bit rate : 192 Kbps
Channel(s) : 2 channels
Channel positions : Front: L R
Sampling rate : 48.0 KHz
Compression mode : Lossy
Stream size : 16.7 MiB (11%)
Alignment : Split accross interleaves
Interleave, duration : 40 ms (1.00 video frame)
Interleave, preload duratio : 500 ms

Скриншоты

   
   

_________________


Вне форума [Профиль] [ЛС]
Показать сообщения:    
Ответить на тему

Текущее время: Сегодня 01:19

Часовой пояс: GMT + 3



Вы не можете начинать темы
Вы не можете отвечать на сообщения
Вы не можете редактировать свои сообщения
Вы не можете удалять свои сообщения
Вы не можете голосовать в опросах
Вы не можете прикреплять файлы к сообщениям
Вы не можете скачивать файлы