Сегодня идет свободное скачивание без начисления Download

Алекс Мэй | Сексуальные позиции. Для максимального наслаждения (2013) [CamRip]

Ответить на тему
 
Автор
Сообщение

Omen ®

Стаж: 5 лет 11 месяцев

Сообщений: 184329

Торрент-статистика

Пост 07-Май-2015 00:08

[Цитировать]

Алекс Мэй
Сексуальные позиции. Для максимального наслаждения
- Автор (режиссер): Алекс Мэй
Жанр: Секс
Продолжительность: 03:17:37
Качество видео: CamRip
Видеокодек: MPEG-4 Visual
Битрейт видео: ~1200 kb/s, 25 FPS
Размер кадра: 720 x 400
Аудиокодек: AAC
Битрейт аудио: 128 kb/s, 2Ch, 44.1 KHz
Описание:
Что скрывает Камасутра? Секреты сексуальных позиций, которые заставят вашу девушку стонать от наслаждения, выкрикивая ваше имя в экстазе! Один из самых больших мифов в сексе заключается в том, что вам нужно владеть большим количеством поз, чтобы стать хорошим любовником. На самом деле, не столь важно сколько сотен позиций вы знаете — важно насколько эффективно вы их применяете.

Дополнительная информация:

Что же представляет из себя эта обучающая программа?
Видеокурс отвечает пяти важным требованиям, которые я поставил перед собой во время его создания:
Легкость. Вам не придется тратить долгие часы на какие-либо тренировки. Все очень просто — просмотрел, попробовал этим же вечером, получил результат.
Наглядность. Для вашего удобства я специально пригласил мою хорошую подругу, известную модель, вместе с которой мы рассматриваем все правильные, а также и ошибочные позиции в сексе.
Пошаговость. Просмотрев курс, вы будете четко знать, что и как делать в постели с женщиной. У вас больше никогда не возникнет вопроса о том, что именно ей нужно в данную минуту.
Универсальность. Независимо от вашего возраста, размера члена, наличия или отсутствия опыта в сексе вы все равно получите потрясающий результат. Женщины будут буквально требовать от вас секса вновь и вновь!
Детальность. Вы узнаете не только эффективную практику, но и подробную теорию того, что стоит за невероятным, крышесносным сексом.
Данный видеокурс на все 100% отвечает этим требованиям.

MediaInfo:

General
Complete name : Сексуальные позиции для максимального наслаждения.mp4
Format : MPEG-4
Format profile : Base Media
Codec ID : isom
File size : 1.84 GiB
Duration : 3h 17mn
Overall bit rate mode : Variable
Overall bit rate : 1 333 Kbps
Writing application : Lavf52.39.0
Video
ID : 1
Format : MPEG-4 Visual
Format profile : Simple@L1
Format settings, BVOP : No
Format settings, QPel : No
Format settings, GMC : No warppoints
Format settings, Matrix : Default (H.263)
Codec ID : 20
Duration : 3h 17mn
Bit rate : 1 200 Kbps
Width : 720 pixels
Height : 400 pixels
Display aspect ratio : 16:9
Frame rate mode : Variable
Frame rate : 25.000 fps
Minimum frame rate : 4.281 fps
Maximum frame rate : 29.970 fps
Color space : YUV
Chroma subsampling : 4:2:0
Bit depth : 8 bits
Scan type : Progressive
Compression mode : Lossy
Bits/(Pixel*Frame) : 0.167
Stream size : 1.66 GiB (90%)
Writing library : Lavc52.36.0
Audio
ID : 2
Format : AAC
Format/Info : Advanced Audio Codec
Format profile : LC
Codec ID : 40
Duration : 3h 17mn
Bit rate mode : Variable
Bit rate : 128 Kbps
Channel(s) : 2 channels
Channel positions : Front: L R
Sampling rate : 44.1 KHz
Compression mode : Lossy
Stream size : 181 MiB (10%)
Language : English
Скриншоты:
     
     
Вне форума [Профиль] [ЛС]
Похожие темы
Форум Тема Автор Торрент Отв. Посл. сообщение
./templates/default/images/folder_dl.gif Приключения, детектив, боевик, триллер Алексеев Сергей - Удар "Молнии" [Литвинова Наталия, 2012, 96 kbps, MP3] Omen
1 | 0

0 | 1025

6

2012-12-11 05:28
Omen Последнее
./templates/default/images/folder_dl.gif Сатира, Юмор Александр Щелоков | Я — начальник, ты — дурак [2004] [FB2] sashau
1 | 0

0 | 1648

12

2013-01-22 11:11
sashau Последнее
./templates/default/images/folder_dl.gif Обучающее видео Алекс Мэй | Академия секса (2012) [SATRip] UndegraundMen
1 | 0

0 | 11117

693

2013-09-30 23:05
UndegraundMen Последнее
./templates/default/images/folder_dl.gif Обучающее видео Александр Свет | Профессиональная обработка RAW в Capture One Pro 7 (2013) [PCRec] UndegraundMen
1 | 0

0 | 3121

49

2013-11-28 23:01
UndegraundMen Последнее
./templates/default/images/folder_dl.gif Обучающее видео Алексей Кулик | Видеокурс по Ремонту обуви, изготовлению ключей, установки кнопок (2013) [DVDRip] Omen
1 | 0

3 | 1599

26

2018-08-08 08:23
zvladss Последнее
./templates/default/images/folder_dl.gif Компьютерная литература Виктор Долженков, Александр Стученков | Самоучитель Excel 2010 (2011) [PDF] Omen
1 | 0

0 | 1278

7

2014-08-09 21:50
Omen Последнее
./templates/default/images/folder_dl.gif Обучающее видео [Profileschool] Алексей Шадрин | Калибровка монитора от А до Я (2014) PCRec Omen
1 | 0

0 | 3276

127

2014-10-14 21:31
Omen Последнее
./templates/default/images/folder_dl.gif Обучающее видео [Profileschool] Александр Чалдрян | 3D LUT Creator. Следуй за белым кроликом (2014) PCRec Omen
1 | 0

0 | 3264

77

2014-10-29 13:07
Omen Последнее
./templates/default/images/folder_dl.gif Обучающее видео [Profileschool] Алексей Фурсов | Введение в предметную съемку (2014) PCRec Omen
1 | 0

0 | 2371

81

2014-11-06 19:19
Omen Последнее
./templates/default/images/folder_dl.gif Обучающее видео [Profileschool] Алексей Шадрин | Управление визуальным объемом и резкостью изображений (2014) PCRec Omen
2 | 0

0 | 2670

129

2014-11-14 15:38
Omen Последнее
Показать сообщения:    
Ответить на тему

Текущее время: Сегодня 15:32

Часовой пояс: GMT + 3



Вы не можете начинать темы
Вы не можете отвечать на сообщения
Вы не можете редактировать свои сообщения
Вы не можете удалять свои сообщения
Вы не можете голосовать в опросах
Вы не можете прикреплять файлы к сообщениям
Вы не можете скачивать файлы