Today is a free download without charge Download

Алекс Мэй | Сексуальные позиции. Для максимального наслаждения (2013) [CamRip]

Reply to topic
 
Author
Message

Omen ®

Longevity: 6 years 6 months

Posts: 181112

Торрент-статистика

Post 07-May-2015 00:08

[Quote]

Алекс Мэй
Сексуальные позиции. Для максимального наслаждения
- Автор (режиссер): Алекс Мэй
Жанр: Секс
Продолжительность: 03:17:37
Качество видео: CamRip
Видеокодек: MPEG-4 Visual
Битрейт видео: ~1200 kb/s, 25 FPS
Размер кадра: 720 x 400
Аудиокодек: AAC
Битрейт аудио: 128 kb/s, 2Ch, 44.1 KHz
Описание:
Что скрывает Камасутра? Секреты сексуальных позиций, которые заставят вашу девушку стонать от наслаждения, выкрикивая ваше имя в экстазе! Один из самых больших мифов в сексе заключается в том, что вам нужно владеть большим количеством поз, чтобы стать хорошим любовником. На самом деле, не столь важно сколько сотен позиций вы знаете — важно насколько эффективно вы их применяете.

Дополнительная информация:

Что же представляет из себя эта обучающая программа?
Видеокурс отвечает пяти важным требованиям, которые я поставил перед собой во время его создания:
Легкость. Вам не придется тратить долгие часы на какие-либо тренировки. Все очень просто — просмотрел, попробовал этим же вечером, получил результат.
Наглядность. Для вашего удобства я специально пригласил мою хорошую подругу, известную модель, вместе с которой мы рассматриваем все правильные, а также и ошибочные позиции в сексе.
Пошаговость. Просмотрев курс, вы будете четко знать, что и как делать в постели с женщиной. У вас больше никогда не возникнет вопроса о том, что именно ей нужно в данную минуту.
Универсальность. Независимо от вашего возраста, размера члена, наличия или отсутствия опыта в сексе вы все равно получите потрясающий результат. Женщины будут буквально требовать от вас секса вновь и вновь!
Детальность. Вы узнаете не только эффективную практику, но и подробную теорию того, что стоит за невероятным, крышесносным сексом.
Данный видеокурс на все 100% отвечает этим требованиям.

MediaInfo:

General
Complete name : Сексуальные позиции для максимального наслаждения.mp4
Format : MPEG-4
Format profile : Base Media
Codec ID : isom
File size : 1.84 GiB
Duration : 3h 17mn
Overall bit rate mode : Variable
Overall bit rate : 1 333 Kbps
Writing application : Lavf52.39.0
Video
ID : 1
Format : MPEG-4 Visual
Format profile : Simple@L1
Format settings, BVOP : No
Format settings, QPel : No
Format settings, GMC : No warppoints
Format settings, Matrix : Default (H.263)
Codec ID : 20
Duration : 3h 17mn
Bit rate : 1 200 Kbps
Width : 720 pixels
Height : 400 pixels
Display aspect ratio : 16:9
Frame rate mode : Variable
Frame rate : 25.000 fps
Minimum frame rate : 4.281 fps
Maximum frame rate : 29.970 fps
Color space : YUV
Chroma subsampling : 4:2:0
Bit depth : 8 bits
Scan type : Progressive
Compression mode : Lossy
Bits/(Pixel*Frame) : 0.167
Stream size : 1.66 GiB (90%)
Writing library : Lavc52.36.0
Audio
ID : 2
Format : AAC
Format/Info : Advanced Audio Codec
Format profile : LC
Codec ID : 40
Duration : 3h 17mn
Bit rate mode : Variable
Bit rate : 128 Kbps
Channel(s) : 2 channels
Channel positions : Front: L R
Sampling rate : 44.1 KHz
Compression mode : Lossy
Stream size : 181 MiB (10%)
Language : English
Скриншоты:
     
     
Other forum [Profile] [PM]
Similar theme
Forum Topic Author Torrent Replies Last Post
./templates/default/images/folder_dl.gif Фильмы 2001-2010 Новая земля (Александр Мельник) (2008, Фантастика, боевик, драма) [H.264] BDRip Omen
1 | 0

0 | 3008

25

2013-02-20 16:44
Omen Latest
./templates/default/images/folder_dl.gif Обучающее видео Алекс Мэй | Академия секса (2012) [SATRip] UndegraundMen
1 | 0

0 | 12048

709

2013-09-30 23:05
UndegraundMen Latest
./templates/default/images/folder_dl.gif Обучающее видео Александр Свет | Профессиональная обработка RAW в Capture One Pro 7 (2013) [PCRec] UndegraundMen
1 | 0

0 | 3831

50

2013-11-28 23:01
UndegraundMen Latest
./templates/default/images/folder_dl.gif Фильмы 2011-2019 Французский шпион (Алексей Феоктистов) [2014 г., боевик, детектив, DVDRip-AVC] [Лицензия] Omen
1 | 0

0 | 2504

49

2014-09-26 11:28
Omen Latest
./templates/default/images/folder_dl.gif Фантастика, фэнтези, ужасы, мистика Алексей Чумаков | В поисках призраков (2015) [FB2] Omen
1 | 0

0 | 772

1

2015-03-16 18:55
Omen Latest
./templates/default/images/folder_dl.gif Обучающее видео Александр Медведев | 10 ноу-хау на съёмке, до которых вы не додумались (2013) PCRec Omen
1 | 0

0 | 1397

38

2015-04-03 20:51
Omen Latest
./templates/default/images/folder_dl.gif Обучающее видео [Profileschool] Алексей Шадрин | Секреты современного искусства - Марк Шагал (2015) PCRec Omen
1 | 0

0 | 1676

34

2015-04-06 16:23
Omen Latest
./templates/default/images/folder_dl.gif Обучающее видео [Profileschool] Алексей Шадрин | Пленочная фотография: за и против (Алексей Шадрин)[ 2015.,Обучающее видео]PCRec sashau
1 | 0

0 | 2596

28

2015-04-13 04:16
sashau Latest
./templates/default/images/folder_dl.gif Отечественные cериалы Меч 2 (Пролог + Серии 01—20 из 20) (Алексей Луканев) [2015, криминал, SATRip] O.S.A.
1 | 0

0 | 1313

37

2015-06-15 18:54
O.S.A. Latest
./templates/default/images/folder_dl.gif Компьютерная литература Алексей Гультяев | Самоучитель Nero 8. Запись CD и DVD (2008) [PDF] Omen
1 | 0

0 | 663

3

2015-07-12 16:15
Omen Latest
Display posts from previous:    
Reply to topic

The time now is: Today 15:27

All times are GMT + 3 Hours



You cannot post new topics in this forum
You cannot reply to topics in this forum
You cannot edit your posts in this forum
You cannot delete your posts in this forum
You cannot vote in polls in this forum
You cannot attach files in this forum
You cannot download files in this forum