Today is a free download without charge Download

Алекс Мэй | Как продлить половой акт (2011) [CamRip]

Reply to topic
 
Author
Message

Omen ®

Longevity: 6 years 6 months

Posts: 181112

Торрент-статистика

Post 07-May-2015 00:07

[Quote]

Алекс Мэй
Как продлить половой акт
- Автор (режиссер): Алекс Мэй
Жанр: Секс
Продолжительность: 03:00:41
Качество видео: CamRip
Видеокодек: AVC
Битрейт видео: ~1000 kb/s, 25 FPS
Размер кадра: 720 x 400
Аудиокодек: AAC
Битрейт аудио: 96 kb/s, 2Ch, 44.1 KHz
Описание:
Этот видеокурс позволяет любому мужчине, страдающему от преждевременного семяизвержения, полностью избавиться от этой проблемы, улучшить эрекцию и заниматься сексом столько, сколько он сам захочет, даже если до этого он страдал этим всю жизнь и кончал, как я когда-то, не успев донести член до влагалища.

Дополнительная информация:

Эта система уже помогла множеству людей, сказавших «нет» лекарствам, гелям и другим фармацевтическим «костылям». Нашему организму и так хватает забот по защите нас от плохой экологии. Ему не нужна лишняя химия и визиты к врачам.
В моём распоряжении есть свидетельства людей, которые вообще считались «безнадёжными случаями» с точки зрения лекарств и медицины, пока не пришли ко мне. Теперь же они спокойны, полны уверенности и с нетерпением ждут наступления ночи. Их секс длится столько, сколько они сами пожелают.
Вам уже наверняка не терпится узнать, что вас ждёт внутри курса? Вот лишь малая часть, так сказать «верхушка айсберга»...
Вы получите ясную, чёткую, доступную каждому, пошаговую инструкцию: как положить конец преждевременному семяизвержению.
Для самых ленивых и нетерпеливых: 5 простых и надёжных техник, которые помогут вам уже сегодня вечером. Не важно, в какой стадии проблемы вы до этого находились.
Вы узнаете о 4 составляющих долгого секса. Освоить их вам предстоит за считанные дни, в то время как эффект постоянен и останется с вами на всю жизнь.
Вы узнаете как, используя один простой принцип, вы сможете останавливать подступающую эякуляцию любой силы.
Вы узнаете 3 самых тщательно охраняемых секрета тех, кто способен заниматься сексом, не прерываясь, ЧАСАМИ, и что надо сделать, чтобы попасть в их число.
Мощное упражнение, предотвращающее семяизвержение, которое очень легко интегрировать в любую часть своего дня. Спортзал не нужен.
Для крайне занятых! Как легко найти время на эту программу, даже если ваш день расписан по минутам, и вы работаете по 70 часов в неделю.
И многое, многое другое…
Самое главное, и это подтверждено как моим собственным опытом, так и опытом множества моих клиентов, данная система в самые короткие сроки и без применения лекарств устраняет проблему преждевременного семяизвержения и даёт вам в руки штурвал контроля за всем, что происходит в постели.
Отныне вы сможете заниматься сексом так долго, как сами пожелаете. Эта программа полностью, раз и навсегда закроет для вас вопрос преждевременного семяизвержения. У вас больше нет необходимости разрываться между непомерно дорогими или подозрительно дешёвыми предложениями фармацевтических компаний или недобросовестных врачей.

MediaInfo:

General
Complete name : Как продлить половой акт.mp4
Format : MPEG-4
Format profile : Base Media / Version 2
Codec ID : mp42
File size : 1.39 GiB
Duration : 3h 0mn
Overall bit rate mode : Variable
Overall bit rate : 1 104 Kbps
Encoded date : UTC 2012-05-21 14:25:27
Tagged date : UTC 2012-05-22 01:38:53
Writing application : HandBrake 0.9.5 2011010300
Video
ID : 1
Format : AVC
Format/Info : Advanced Video Codec
Format profile : [url=mailto:High@L4.0]High@L4.0[/url]
Format settings, CABAC : Yes
Format settings, ReFrames : 2 frames
Codec ID : avc1
Codec ID/Info : Advanced Video Coding
Duration : 3h 0mn
Bit rate mode : Variable
Bit rate : 1 000 Kbps
Width : 720 pixels
Height : 400 pixels
Display aspect ratio : 16:9
Frame rate mode : Variable
Frame rate : 25.000 fps
Minimum frame rate : 8.333 fps
Maximum frame rate : 25.000 fps
Color space : YUV
Chroma subsampling : 4:2:0
Bit depth : 8 bits
Scan type : Progressive
Bits/(Pixel*Frame) : 0.139
Stream size : 1.27 GiB (91%)
Writing library : x264 core 112
Encoding settings : cabac=1 / ref=2 / deblock=1:-2:-1 / analyse=0x3:0x133 / me=umh / subme=9 / psy=1 / psy_rd=1.00:0.00 / mixed_ref=1 / me_range=16 / chroma_me=1 / trellis=1 / 8x8dct=1 / cqm=0 / deadzone=21,11 / fast_pskip=0 / chroma_qp_offset=-2 / threads=1 / sliced_threads=0 / nr=0 / decimate=1 / interlaced=0 / constrained_intra=0 / bframes=3 / b_pyramid=0 / b_adapt=1 / b_bias=0 / direct=3 / weightb=1 / open_gop=0 / weightp=2 / keyint=250 / keyint_min=25 / scenecut=40 / intra_refresh=0 / rc_lookahead=40 / rc=abr / mbtree=1 / bitrate=1000 / ratetol=1.0 / qcomp=0.60 / qpmin=3 / qpmax=51 / qpstep=4 / ip_ratio=1.40 / aq=1:1.00
Encoded date : UTC 2012-05-21 14:25:27
Tagged date : UTC 2012-05-22 01:38:53
Color primaries : BT.601-6 525, BT.1358 525, BT.1700 NTSC, SMPTE 170M
Transfer characteristics : BT.709-5, BT.1361
Matrix coefficients : BT.601-6 525, BT.1358 525, BT.1700 NTSC, SMPTE 170M
Audio
ID : 2
Format : AAC
Format/Info : Advanced Audio Codec
Format profile : LC
Codec ID : 40
Duration : 3h 0mn
Bit rate mode : Variable
Bit rate : 96.0 Kbps
Maximum bit rate : 158 Kbps
Channel(s) : 2 channels
Channel positions : Front: L R
Sampling rate : 44.1 KHz
Compression mode : Lossy
Delay relative to video : -120ms
Stream size : 124 MiB (9%)
Language : English
Encoded date : UTC 2012-05-21 14:25:27
Tagged date : UTC 2012-05-22 01:38:53
Скриншоты:
         
Other forum [Profile] [PM]
Similar theme
Forum Topic Author Torrent Replies Last Post
./templates/default/images/folder_dl.gif Обучающее видео Александр Свет | Профессиональная обработка RAW в Capture One Pro 7 (2013) [PCRec] UndegraundMen
1 | 0

0 | 3822

50

2013-11-28 23:01
UndegraundMen Latest
./templates/default/images/folder_dl.gif Философия и религия Ксендзюк Алексей - Человек неведомый: Толтекский путь усиления осознания. [Голосовой движек Алена, (ЛИ), 2014 г., 128 kbps, MP3] Omen
0 | 1

0 | 896

0

2014-05-17 23:00
Omen Latest
./templates/default/images/folder_dl.gif Обучающее видео Никоноров Михаил, Ефременко Александр | Телефония Asterisk с нуля (2014) PCRec Omen
1 | 0

0 | 1350

27

2015-03-31 18:03
Omen Latest
./templates/default/images/folder_dl.gif Обучающее видео [Profileschool] Алексей Шадрин | Секреты современного искусства - Марк Шагал (2015) PCRec Omen
1 | 0

0 | 1670

34

2015-04-06 16:23
Omen Latest
./templates/default/images/folder_dl.gif Обучающее видео Алекс Мэй | Сексуальные позиции. Для максимального наслаждения (2013) [CamRip] Omen
1 | 0

0 | 2425

208

2015-05-07 00:08
Omen Latest
./templates/default/images/folder_dl.gif Обучающее видео Алексей Пахомов | Анализ осциллограмм [7 уроков] (2016) PCRec Omen
1 | 0

0 | 1813

39

2016-03-09 06:29
Omen Latest
./templates/default/images/folder_dl.gif Обучающее видео Александр Свет | Capture One Pro. Профессиональная обработка RAW (2017) PCRec Omen
1 | 0

0 | 583

7

2016-03-09 06:45
Omen Latest
./templates/default/images/folder_dl.gif Психология, Тренинг, Саморазвитие Алекс Лесли | ЖЖизнь без трусов (2011) [MP3] moralis
1 | 0

0 | 1738

11

2016-04-10 21:57
moralis Latest
./templates/default/images/folder_dl.gif Медицина и Здоровье Александр Мясников | Энциклопедия доктора Мясникова о самом главном [3 тома] (2015-2017) [FB2] }{@R0N
1 | 0

0 | 7914

30

2017-11-20 21:19
}{@R0N Latest
./templates/default/images/folder_dl.gif Разное Александр Матанцев | Поздравления от души (2018) [PDF] }{@R0N
1 | 0

0 | 366

6

2018-10-21 17:47
}{@R0N Latest
Display posts from previous:    
Reply to topic

The time now is: Today 02:45

All times are GMT + 3 Hours



You cannot post new topics in this forum
You cannot reply to topics in this forum
You cannot edit your posts in this forum
You cannot delete your posts in this forum
You cannot vote in polls in this forum
You cannot attach files in this forum
You cannot download files in this forum