Сегодня идет свободное скачивание без начисления Download

Последний человек на Земле / The Last Man on Earth / Сезон: 1 / Серии: 1-13 из 13 (Фил Лорд / Phil Lord, ...) [2015 г., фантастика, боевик, комедия, WEB-DL, 1080p] MVO (BaibaKo) + Original (Eng)

Ответить на тему
 
Автор
Сообщение

Clavik ®

Пол:

Стаж: 4 года 7 месяцев

Сообщений: 2413

Откуда: Украина

Торрент-статистика

Пост 05-Май-2015 15:45

[Цитировать]

-Последний человек на Земле / The Last Man on Earth- Производство: США, Si Fi Company, The, Lord Miller, 20th Century Fox Television
Жанр: фантастика, боевик, комедия
Год выпуска: 2015 г.-Озвучка:
Перевод: Профессиональный (многоголосый, закадровый)
Оригинальный аудиопоток: английский-Сезон: 1
Серии: 13 из 13 серий
Продолжительность: ~ 00:22:00 мин серия-Режиссер: Фил Лорд / Phil Lord, Кристофер Миллер / Christopher Miller, Питер Атенсио / Peter Atencio
В ролях: Клеопатра Коулмэн, Дженьюэри Джонс, Мэл Родригез, Кристен Шаал, Уилл Форте-Описание: Фил Миллер когда-то был просто обычным парнем, который любил свою семью и ненавидел свою работу в банке — теперь он последняя надежда человечества. Найдет ли он когда-нибудь другого живого человека на планете?- -Качество видео: WEB-DL
Контейнер: MKV
Стандарт разрешения: 1080p
Видео кодек: MPEG4 AVC
Аудио кодек: AC3
Видео: 1920x1080 (16:9), 23.976 fps, ~4 992 Kbps
Аудио: AC3, 384 kbps, 6 ch, 48 kHz - Rus
Аудио #2: AC3, 384 kbps, 6 ch, 48 kHz - Eng
Cубтитры: отсутствуют-

Список серий

01. Живой человек в Туссоне
02. Слон в комнате
03. Изюмные фрикадельки и свадебные колокольчики
04. Сладенькая Мелисса
05. Задай трёпку скунсу
06. Какой-то тупой толстяк
07. Она сводит меня с ума
08. Переезжаю
09. Всё сначала
10. Розыгрыш запросто
11. Переехали в Тампу
12. Тэндимен может
13. К чёрту Луну

Media Info

General
Unique ID : 183274877184583101259036688017035319743 (0x89E1751852545DA8BDD2CBF3753359BF)
Complete name : C:\Users\Ivan\Desktop\Последний человек на Земле (сезон 1) The Last Man on Earth (2015)1080p\The.Last.Man.On.Earth.s01e01-02.HD1080p.WEB-DL.Rus.Eng.BaibaKo.tv.mkv
Format : Matroska
Format version : Version 4 / Version 2
File size : 1.85 GiB
Duration : 45mn 1s
Overall bit rate : 5 877 Kbps
Encoded date : UTC 2015-03-03 22:17:49
Writing application : mkvmerge v7.4.0 ('Circles') 64bit built on Dec 12 2014 12:19:56
Writing library : libebml v1.3.0 + libmatroska v1.4.1
DURATION : 00:45:01.120000000
NUMBER_OF_FRAMES : 84410
NUMBER_OF_BYTES : 129653760
_STATISTICS_WRITING_APP : mkvmerge v7.4.0 ('Circles') 64bit built on Dec 12 2014 12:19:56
_STATISTICS_WRITING_DATE_UT : 2015-03-03 22:17:49
_STATISTICS_TAGS : BPS DURATION NUMBER_OF_FRAMES NUMBER_OF_BYTES
Video
ID : 1
Format : AVC
Format/Info : Advanced Video Codec
Format profile : High@L4.0
Format settings, CABAC : Yes
Format settings, ReFrames : 4 frames
Codec ID : V_MPEG4/ISO/AVC
Duration : 45mn 1s
Bit rate : 4 992 Kbps
Width : 1 920 pixels
Height : 1 080 pixels
Display aspect ratio : 16:9
Frame rate mode : Constant
Frame rate : 23.976 fps
Color space : YUV
Chroma subsampling : 4:2:0
Bit depth : 8 bits
Scan type : Progressive
Bits/(Pixel*Frame) : 0.100
Stream size : 1.57 GiB (85%)
Language : English
Default : Yes
Forced : No
Color primaries : BT.709
Transfer characteristics : BT.709
Matrix coefficients : BT.709
Color range : Limited
Audio #1
ID : 2
Format : AC-3
Format/Info : Audio Coding 3
Mode extension : CM (complete main)
Format settings, Endianness : Big
Codec ID : A_AC3
Duration : 45mn 1s
Bit rate mode : Constant
Bit rate : 384 Kbps
Channel(s) : 6 channels
Channel positions : Front: L C R, Side: L R, LFE
Sampling rate : 48.0 KHz
Bit depth : 16 bits
Compression mode : Lossy
Stream size : 124 MiB (7%)
Language : Russian
Default : Yes
Forced : No
Audio #2
ID : 3
Format : AC-3
Format/Info : Audio Coding 3
Mode extension : CM (complete main)
Format settings, Endianness : Big
Codec ID : A_AC3
Duration : 45mn 1s
Bit rate mode : Constant
Bit rate : 384 Kbps
Channel(s) : 6 channels
Channel positions : Front: L C R, Side: L R, LFE
Sampling rate : 48.0 KHz
Bit depth : 16 bits
Compression mode : Lossy
Stream size : 124 MiB (7%)
Language : English
Default : No
Forced : No
-Скриншоты:
       
-Добавлена 13 серия первого сезона (Финал)

_________________


Вне форума [Профиль] [ЛС]
Похожие темы
Форум Тема Автор Торрент Отв. Посл. сообщение
./templates/default/images/folder_dl.gif Компьютерная литература Михаил Пантаев | Матанализ с человеческим лицом, или Как выжить после предельного перехода. Полный курс математического анализа. Том 2 (2016) [PDF] moralis
1 | 0

0 | 1507

13

2016-03-09 21:50
moralis Последнее
./templates/default/images/folder_dl.gif Справочники, энциклопедии и словари Михаил Пантаев | Матанализ с человеческим лицом, или Как выжить после предельного перехода. Полный курс математического анализа. Том 1 (2015) [PDF] moralis
1 | 0

0 | 1415

9

2016-03-09 21:51
moralis Последнее
./templates/default/images/folder_dl.gif Новинки (BD|HDTV|DVD) Звёздные войны: Последние джедаи / Star Wars: The Last Jedi (Райан Джонсон) [2017, фантастика, фэнтези, боевик, приключения, UHD BDRemux 2160p] DUB | iTunes Theseus
1 | 0

0 | 324

2

2018-03-15 14:03
Theseus Последнее
./templates/default/images/folder_dl.gif Новинки (BD|HDTV|DVD) Астрал 4: Последний ключ / Insidious: The Last Key (Адам Робител) [2018 г., ужасы, триллер, детектив, WEB-DL 1080p] DUB | iTunes Theseus
1 | 0

0 | 289

5

2018-03-20 17:47
Theseus Последнее
Показать сообщения:    
Ответить на тему

Текущее время: Сегодня 06:11

Часовой пояс: GMT + 3



Вы не можете начинать темы
Вы не можете отвечать на сообщения
Вы не можете редактировать свои сообщения
Вы не можете удалять свои сообщения
Вы не можете голосовать в опросах
Вы не можете прикреплять файлы к сообщениям
Вы не можете скачивать файлы