Today is a free download without charge Download

(Psychedelic Rock, Art Rock, Progressive Rock/Space Rock) [CD] Pink Floyd - Animals - 1977 (Remastered 2015), FLAC (image+.cue), lossless

Reply to topic
 
Author
Message

Omen ®

Longevity: 8 years 3 months

Posts: 181087

Торрент-статистика

Post 24-Apr-2015 18:02

[Quote]

Pink Floyd - Animals - 1977 (Remastered 2015) Жанр: Psychedelic Rock, Art Rock, Progressive Rock/Space Rock
Носитель: CD
Год издания: 2015
Издатель (лейбл): KronStudioLab
Страна исполнителя (группы): UK
Аудиокодек: FLAC (*.flac)
Тип рипа: image+.cue
Битрейт аудио: lossless
Продолжительность: 00:41:52
Источник (релизер): www.Demonoid
Наличие сканов в содержимом раздачи: cover & front only
Треклист:
01.Pigs On The Wing [Part One] - R.Waters [1:25]
02.Dogs - D.Gilmour & R.Waters [17:08]
03.Pigs (Three Different Ones) - R.Waters [11:29]
04.Sheep - R.Waters [10:20]
05.Pigs On The Wing [Part Two] - R.Waters [1:28]-Доп. информация: © & ? 1977 Pink Floyd Music Ltd; © Roger Waters
Digitally Remastered At KronStudioLab, Hamburg.

Лог создания рипа

Exact Audio Copy V0.99 prebeta 5 from 4. May 2009
EAC extraction logfile from 24. April 2015, 2:24
Pink Floyd / Animals
Used drive : ASUS DRW-24B5ST Adapter: 1 ID: 0
Read mode : SecureUtilize accurate stream : YesDefeat audio cache : YesMake use of C2 pointers : No
Read offset correction : 6Overread into Lead-In and Lead-Out : NoFill up missing offset samples with silence : YesDelete leading and trailing silent blocks : NoNull samples used in CRC calculations : YesUsed interface : Native Win32 interface for Win NT & 2000
Used output format : Internal WAV RoutinesSample format : 44.100 Hz; 16 Bit; Stereo
TOC of the extracted CD
Track | Start | Length | Start sector | End sector --------------------------------------------------------- 1 | 0:00.00 | 1:25.15 | 0 | 6389 2 | 1:25.15 | 17:08.28 | 6390 | 83517 3 | 18:33.43 | 11:28.66 | 83518 | 135183 4 | 30:02.34 | 10:20.36 | 135184 | 181719 5 | 40:22.70 | 1:27.43 | 181720 | 188287
Range status and errors
Selected range
Filename E:\EAC-CD-NEW\Pink Floyd - Animals.wav
Peak level 98.7 % Range quality 100.0 % Test CRC EEC458B6 Copy CRC EEC458B6 Copy OK
No errors occurred
End of status report

Содержание индексной карты (.CUE)

REM GENRE "Progressive Rock"REM DATE 1977REM DISCID 3209CE05REM COMMENT "ExactAudioCopy v0.99pb5"PERFORMER "Pink Floyd"TITLE "Animals"FILE "Pink Floyd - Animals.wav" WAVE TRACK 01 AUDIO TITLE "Pigs On The Wing (Part One)" PERFORMER "Pink Floyd" INDEX 01 00:00:00 TRACK 02 AUDIO TITLE "Dogs" PERFORMER "Pink Floyd" INDEX 01 01:25:15 TRACK 03 AUDIO TITLE "Pigs (Three Different Ones)" PERFORMER "Pink Floyd" INDEX 01 18:33:43 TRACK 04 AUDIO TITLE "Sheep" PERFORMER "Pink Floyd" INDEX 01 30:02:34 TRACK 05 AUDIO TITLE "Pigs On The Wing (Part Two)" PERFORMER "Pink Floyd" INDEX 01 40:22:70

auCDtect Task Manager log

-----------------------
DON'T MODIFY THIS FILE
-----------------------
PERFORMER: auCDtect Task Manager, ver. 1.6.0 RC1 build 1.6.0.1
Copyright (c) 2008-2010 y-soft. All rights reserved
http://y-soft.org
ANALYZER: auCDtect: CD records authenticity detector, version 0.8.2
Copyright (c) 2004 Oleg Berngardt. All rights reserved.
Copyright (c) 2004 Alexander Djourik. All rights reserved.
FILE: Pink Floyd - Animals.flac
Size: 249811336 Hash: D08FAE0EF3F16483BD0C18BA0F1D7736 Accuracy: -m0
Conclusion: CDDA 100%
Signature: 7741BB71D14EE133B6491759D0A879F5A27594FD

Spectrogram

DR log

foobar2000 1.1.18 / Dynamic Range Meter 1.1.1
log date: 2015-04-24 16:59:56
--------------------------------------------------------------------------------
Analyzed: Pink Floyd / Animals
--------------------------------------------------------------------------------
DR Peak RMS Duration Track
--------------------------------------------------------------------------------
DR13 -8.53 dB -26.72 dB 1:25 01-Pigs On The Wing (Part One)
DR15 -0.11 dB -19.22 dB 17:08 02-Dogs
DR15 -0.73 dB -17.83 dB 11:29 03-Pigs (Three Different Ones)
DR13 -0.30 dB -17.27 dB 10:20 04-Sheep
DR14 -10.33 dB -28.87 dB 1:28 05-Pigs On The Wing (Part Two)
--------------------------------------------------------------------------------
Number of tracks: 5
Official DR value: DR14
Samplerate: 44100 Hz
Channels: 2
Bits per sample: 16
Bitrate: 796 kbps
Codec: FLAC
================================================================================
-

Об исполнителе (группе)

Animals is the tenth studio album by English progressive rock group Pink Floyd, released in January 1977. A concept album, it provides a scathing critique of the social-political conditions of late 1970s Britain, and presents a marked change in musical style from their earlier work. Animals was recorded at the band's studio, Britannia Row, in London, but its production was punctuated by the
early signs of discord that several years later would culminate in keyboardist Richard Wright leaving the band.
Animals is published in 1977 Pink Floyd album. The album was inspired by George Orwell's book Animal Farm, but in
contrast to the anti-Soviet Orwell's book, Animals käsittelee kapitalistista kilpailuyhteiskuntaa ja arvostelee
jyrkästi markkinatalousjärjestelmää ja muun muassa Mary Whitehousea.
The album's cover image, a pig
floating between two chimneys on Battersea Power Station, was conceived by bassist and writer Roger Waters, and
photographed by long-time collaborators Hipgnosis. Animals was released to generally positive reviews in the United
Kingdom, where it reached number 2. It was also a success in the United States, reaching number 3 on the Billboard 200,
and although it scored on the American charts for only six months, steady sales have resulted in its certification by
the RIAA at four times platinum.
Other forum [Profile] [PM]
Display posts from previous:    
Reply to topic

The time now is: Today 01:20

All times are GMT + 3 Hours



You cannot post new topics in this forum
You cannot reply to topics in this forum
You cannot edit your posts in this forum
You cannot delete your posts in this forum
You cannot vote in polls in this forum
You cannot attach files in this forum
You cannot download files in this forum