Сегодня идет свободное скачивание без начисления Download

Игра престолов / Game of Thrones / Сезон: 5 / Серии: 1-2 (10) (Алан Тейлор / Alan Taylor, ...) [2015 г., фэнтези, драма, приключения, WEB-DL, 1080p] MVO (LostFilm) [обновляемая]

Ответить на тему
 
Автор
Сообщение

Varius ®

Пол:

Стаж: 8 лет 1 месяц

Сообщений: 2754

Откуда: Hell

Торрент-статистика

Пост 22-Апр-2015 05:39

[Цитировать]

Игра престолов / Game of Thrones
(сезон 5, серии 1-2 из 10)

«Победа или смерть»
- Производство: США, Великобритания
Жанр: фэнтези, драма, приключения
Режиссер: Дэвид Беньофф, Дэн Вайс, Алекс Грейвз
Актеры: Питер Динклэйдж, Лена Хиди, Николай Костер-Вальдау, Эмилия Кларк, Эйдан Гиллен, Иэн Глен, Кит Харингтон, Лиам Каннингэм, Айзек Хэмпстед-Райт, Софи Тернер, Мэйси Уильямс, Элфи Аллен, Джон Брэдли-Уэст, Джек Глисон, Рори МакКанн, Стивен Диллэйн, Кэрис Ван Хаутен, Джером Флинн, Конлет Хилл, Сибель Кекилли и др.
Описание:
К концу подходит время благоденствия, и лето, длившееся почти десятилетие, угасает. Вокруг средоточия власти Семи королевств, Железного трона, зреет заговор, и в это непростое время король решает искать поддержки у друга юности Эддарда Старка. В мире, где все — от короля до наемника — рвутся к власти, плетут интриги и готовы вонзить нож в спину, есть место и благородству, состраданию и любви. Между тем, никто не замечает пробуждение тьмы из легенд далеко на Севере — и лишь Стена защищает живых к югу от нее.

Продолжительность: ~00:55:00 серия
Качество видео: HDTV 1080p
Перевод: Многоголосый закадровый, профессиональный - LostFilm
Вид субтитров: вшитые отключаемые
Язык субтитров: русский (форсированные + Amedia), английский
Видеокодек: MPEG-4/H.264 AVC
Формат: MKV
Битрейт видео: ~13 mb/s
Размер кадра: 1912x1072 (16:9)
Аудио Rus: (AC-3, 48,0 kHz, 2 ch, 384 kb/s) - многоголосый закадровый
Аудио Eng: (AC-3, 48,0 kHz, 6 ch, 384 kb/s) - оригинал

MediaInfo

Общее
Уникальный идентификатор : 218639562513293690196560672355017585710 (0xA47C72B338C842FDBBA5AD442D04742E)
Полное имя : D:\Игра престолов (сезон 5) Game of Thrones (2015) HDTV 1080p - LostFilm\Game.of.Thrones.S05E01.HDTV1080p.Rus.Eng.DV.LostFilm.mkv
Формат : Matroska
Версия формата : Version 4 / Version 2
Размер файла : 5,20 Гбайт
Продолжительность : 52 м.
Общий поток : 14,3 Мбит/сек
Название фильма : Game.of.Thrones.S05E01.HDTV1080p.Rus.Eng.DV.LostFilm/NNM-Club
Дата кодирования : UTC 2015-04-21 17:25:10
Программа кодирования : mkvmerge v7.8.0 ('River Man') 64bit built on Mar 27 2015 16:31:37
Библиотека кодирования : libebml v1.3.1 + libmatroska v1.4.2
_STATISTICS_WRITING_APP : mkvmerge v7.8.0 ('River Man') 64bit built on Mar 27 2015 16:31:37
_STATISTICS_WRITING_DATE_UTC : 2015-04-21 17:25:10
_STATISTICS_TAGS : BPS DURATION NUMBER_OF_FRAMES NUMBER_OF_BYTES
DURATION : 00:52:07.360000000
NUMBER_OF_FRAMES : 97730
NUMBER_OF_BYTES : 150113280
Видео
Идентификатор : 1
Формат : AVC
Формат/Информация : Advanced Video Codec
Профиль формата : [url=mailto:High@L4.1]High@L4.1[/url]
Параметр CABAC формата : Да
Параметр ReFrames формата : 4 кадра
Идентификатор кодека : V_MPEG4/ISO/AVC
Продолжительность : 52 м.
Битрейт : 13,2 Мбит/сек
Ширина : 1912 пикселей
Высота : 1072 пикселя
Соотношение сторон : 16:9
Режим частоты кадров : Постоянный
Частота кадров : 23,976 кадра/сек
Цветовое пространство : YUV
Субдискретизация насыщенности : 4:2:0
Битовая глубина : 8 бит
Тип развёртки : Прогрессивная
Бит/(Пиксели*Кадры) : 0.268
Размер потока : 4,81 Гбайт (93%)
Библиотека кодирования : x264 core 144 r2525 40bb568
Настройки программы : cabac=1 / ref=4 / deblock=1:-3:-3 / analyse=0x3:0x113 / me=umh / subme=9 / psy=1 / psy_rd=1.00:0.00 / mixed_ref=1 / me_range=16 / chroma_me=1 / trellis=1 / 8x8dct=1 / cqm=0 / deadzone=21,11 / fast_pskip=0 / chroma_qp_offset=-2 / threads=18 / lookahead_threads=1 / sliced_threads=0 / nr=0 / decimate=1 / interlaced=0 / bluray_compat=0 / constrained_intra=0 / bframes=3 / b_pyramid=2 / b_adapt=2 / b_bias=0 / direct=3 / weightb=1 / open_gop=0 / weightp=2 / keyint=250 / keyint_min=23 / scenecut=40 / intra_refresh=0 / rc=crf / mbtree=0 / crf=17.0 / qcomp=0.60 / qpmin=0 / qpmax=69 / qpstep=4 / ip_ratio=1.40 / pb_ratio=1.30 / aq=1:1.00
Язык : English
Default : Да
Forced : Нет
Коэффициенты матрицы : BT.709
colour_range : Limited
_STATISTICS_WRITING_APP : mkvmerge v7.8.0 ('River Man') 64bit built on Mar 27 2015 16:31:37
_STATISTICS_WRITING_DATE_UTC : 2015-04-21 17:25:10
_STATISTICS_TAGS : BPS DURATION NUMBER_OF_FRAMES NUMBER_OF_BYTES
DURATION : 00:52:07.458000000
NUMBER_OF_FRAMES : 74984
NUMBER_OF_BYTES : 5278369915
Аудио #1
Идентификатор : 2
Формат : AC-3
Формат/Информация : Audio Coding 3
Расширение режима : CM (complete main)
Параметр Endianness формата : Big
Идентификатор кодека : A_AC3
Продолжительность : 52 м.
Вид битрейта : Постоянный
Битрейт : 384 Кбит/сек
Каналы : 2 канала
Расположение каналов : Front: L R
Частота : 48,0 КГц
Битовая глубина : 16 бит
Метод сжатия : С потерями
Размер потока : 143 Мбайт (3%)
Заголовок : LostFilm
Язык : Russian
Default : Да
Forced : Нет
Аудио #2
Идентификатор : 3
Формат : AC-3
Формат/Информация : Audio Coding 3
Расширение режима : CM (complete main)
Параметр Endianness формата : Big
Идентификатор кодека : A_AC3
Продолжительность : 52 м.
Вид битрейта : Постоянный
Битрейт : 384 Кбит/сек
Каналы : 6 каналов
Расположение каналов : Front: L C R, Side: L R, LFE
Частота : 48,0 КГц
Битовая глубина : 16 бит
Метод сжатия : С потерями
Размер потока : 143 Мбайт (3%)
Язык : English
Default : Нет
Forced : Нет
Текст #1
Идентификатор : 4
Формат : UTF-8
Идентификатор кодека : S_TEXT/UTF8
Идентификатор кодека/Информация : UTF-8 Plain Text
Заголовок : Amedia
Язык : Russian
Default : Нет
Forced : Нет
Текст #2
Идентификатор : 5
Формат : UTF-8
Идентификатор кодека : S_TEXT/UTF8
Идентификатор кодека/Информация : UTF-8 Plain Text
Заголовок : Forced
Язык : Russian
Default : Нет
Forced : Нет
Текст #3
Идентификатор : 6
Формат : UTF-8
Идентификатор кодека : S_TEXT/UTF8
Идентификатор кодека/Информация : UTF-8 Plain Text
Язык : English
Default : Нет
Forced : Нет

Список серий

01. The Wars to Come / Грядущие войны
02. The House of Black and White / Чёрно-белый дом

Раздача ведётся путём добавления новых серий

Раздача ведётся путём добавления новых серий; при каждом добавлении создаётся новый торрент. Чтобы начать докачку новой серии, пользователям необходимо сделать следующее:
(1) остановить скачивание,
(2) удалить старый торрент у себя из клиента (старые серии удалять не надо),
(3) скачать новый торрент и запустить его у себя в клиенте вместо старого, при этом указать клиенту путь в старую папку куда и должно происходить скачивание новых серий.
Ваш клиент при этом должен произвести хеширование (проверку) старой папки (если не производит сам - помогите ему сделать это), и будет докачивать только те серии которых у вас ещё нет. Старые серии при этом не удаляются, а продолжают раздаваться!
Eсли вы уже удалили старые серии, то предотвратить повторную закачку старых серий можно, отжав галочку в соответствующих местах при запуске нового торрента. По возможности, желательно не удалять старые серии как можно дольше чтобы релизёр не столько продолжал раздавать старые серии, а смог сконцентрироваться на новых.
Скриншоты:
         

_________________

Создавая "Новую папку", не считайте себя Создателем - это право Вам дано Админом


Вне форума [Профиль] [ЛС]
Показать сообщения:    
Ответить на тему

Текущее время: Сегодня 05:55

Часовой пояс: GMT + 3



Вы не можете начинать темы
Вы не можете отвечать на сообщения
Вы не можете редактировать свои сообщения
Вы не можете удалять свои сообщения
Вы не можете голосовать в опросах
Вы не можете прикреплять файлы к сообщениям
Вы не можете скачивать файлы