Сегодня идет свободное скачивание без начисления Download

Том и Джерри: Комедийное шоу / The Tom and Jerry Comedy Show / Серии: 7-15 из 15 (Гвен Ветцлер / Gwen Wetzler) [1980-1982, Приключения, комедия, семейный, DVB] MVO (РТР)

Ответить на тему
 
Автор
Сообщение

Omen ®

Стаж: 4 года 10 месяцев

Сообщений: 190643

Торрент-статистика

Пост 22-Апр-2015 00:00

[Цитировать]

Том и Джерри: Комедийное шоу / The Tom and Jerry Comedy Show- Страна: США
Жанр: Приключения, комедия, семейный
Продолжительность: 00:17:12
Года выпуска: 1980-1982
Перевод: Профессиональный (многоголосый закадровый) [РТР]
Субтитры: Отсутствуют
Русские субтитры: нет
Режиссёр: Гвен Ветцлер / Gwen Wetzler
Описание: Сюжет большинства серий мультсериала основан на тщетных попытках Тома поймать мышонка на увечьях и разрушениях, которые из всего этого следуют. Поскольку в некоторых сериях персонажи довольно мирно уживаются между собой, остаётся непонятным, за что Том постоянно преследует Джерри. Надо признать, что погони доставляют удовольствие им обоим.-Альтернативные раздачи
Семпл-Качество: DVB
Формат: MPG
Видео: MPEG2, 720x576, 25.000 fps, 6.093 Kbps
Аудио: MP2, 48.0 KHz, 2 ch, 192 Kbps-

Список серий

07. Under the Big Top / Lumber Jerks / Gopher It, Tom
08. Snowbrawl / Getting the Foot / Kitty Hawk Kitty
09. Get Along, Little Jerry / Star-Crossed Wolf / Spike's Birthday
10. No Museum Peace / A Day at the Bakery / Mouse Over Miami
11. The Trojan Dog / Foreign Legion Droopy (отсутствует) / Pie in the Sky
12. Save That Mouse / Old Mother Hubbard / Say What?
13. Superstocker (отсутствует) / Droopy's Good Luck Charm (отсутствует) / The Great Mousini
14. Jerry's Country Cousin / The Great Diamond Heist / Mechanical Failure
15. A Connecticut Mouse in King Arthur's Cork / The Great Train Rubbery / Stage Struck

Подробные технические данные

GeneralComplete name : D:\IPTV\Том и Джерри. Комедийное шоу\The Tom and Jerry Comedy Show.e07a.mpgFormat : MPEG-PSFile size : 263 MiBDuration : 5mn 44sOverall bit rate mode : VariableOverall bit rate : 6 413 Kbps
VideoID : 224 (0xE0)Format : MPEG VideoFormat version : Version 2Format profile : Main@MainFormat settings, BVOP : YesFormat settings, Matrix : CustomFormat settings, GOP : VariableFormat settings, picture st : FrameDuration : 5mn 44sBit rate mode : VariableBit rate : 6 093 KbpsMaximum bit rate : 15.0 MbpsWidth : 720 pixelsHeight : 576 pixelsDisplay aspect ratio : 4:3Frame rate : 25.000 fpsStandard : PALColor space : YUVChroma subsampling : 4:2:0Bit depth : 8 bitsScan type : InterlacedScan order : Top Field FirstCompression mode : LossyBits/(Pixel*Frame) : 0.588Time code of first frame : 00:00:00:00Time code source : Group of pictures headerGOP, Open/Closed : OpenStream size : 250 MiB (95%)GOP, Open/Closed of first f : Closed
AudioID : 192 (0xC0)Format : MPEG AudioFormat version : Version 1Format profile : Layer 2Duration : 5mn 44sBit rate mode : ConstantBit rate : 192 KbpsChannel(s) : 2 channelsSampling rate : 48.0 KHzCompression mode : LossyDelay relative to video : -26msStream size : 7.88 MiB (3%)

Скриншоты

Вне форума [Профиль] [ЛС]
Похожие темы
Форум Тема Автор Торрент Отв. Посл. сообщение
./templates/default/images/folder_dl.gif Мультфильмы Том и Джерри: Робин Гуд и Мышь-Весельчак / Tom and Jerry: Robin Hood and His Merry Mouse (Спайк Брандт / Spike Brandt, Тони Червоне / Tony Cervone) [2012, США, мультфильм, семейный, BDRemux 1080p] Omen
1 | 0

0 | 693

6

2012-11-22 10:07
Omen Последнее
./templates/default/images/folder_dl.gif Обучающее видео Сергей Брежнев | Мастер-класс по работе с цветом и тонировке (2014) PCRec (H.264) Omen
1 | 0

0 | 1959

49

2014-10-19 12:32
Omen Последнее
Показать сообщения:    
Ответить на тему

Текущее время: Сегодня 09:45

Часовой пояс: GMT + 3



Вы не можете начинать темы
Вы не можете отвечать на сообщения
Вы не можете редактировать свои сообщения
Вы не можете удалять свои сообщения
Вы не можете голосовать в опросах
Вы не можете прикреплять файлы к сообщениям
Вы не можете скачивать файлы