Сегодня идет свободное скачивание без начисления Download

Том и Джерри: Комедийное шоу / The Tom and Jerry Comedy Show / Серии: 1-15 из 15 (Гвен Ветцлер / Gwen Wetzler) [1980-1982, Приключения, комедия, семейный, DVB] Dub + MVO

Ответить на тему
 
Автор
Сообщение

Omen ®

Стаж: 5 лет

Сообщений: 190529

Торрент-статистика

Пост 21-Апр-2015 12:01

[Цитировать]

Том и Джерри: Комедийное шоу / The Tom and Jerry Comedy Show- Страна: США
Жанр: Приключения, комедия, семейный
Продолжительность: 00:21:06
Года выпуска: 1980-1982
Переводы:
  • Профессиональный (полное дублирование) [Объединение Русский Дубляж],
  • Профессиональный (многолосый закадровый) [РТР].
    Субтитры: Отсутствуют
    Русские субтитры: нет
    Режиссёр: Гвен Ветцлер / Gwen Wetzler
    Описание: Сюжет большинства серий мультсериала основан на тщетных попытках Тома поймать мышонка на увечьях и разрушениях, которые из всего этого следуют. Поскольку в некоторых сериях персонажи довольно мирно уживаются между собой, остаётся непонятным, за что Том постоянно преследует Джерри. Надо признать, что погони доставляют удовольствие им обоим.-Альтернативные раздачи
    Семпл-Качество: DVB
    Формат: TS
    Видео: AVC, 720x576, 25.000 fps, 3.124 Kbps
    Аудио: MP2, 48.0 KHz, 2 ch, 256 Kbps-

Список серий

01. Farewell, Sweet Mouse (перевод ОРД) / Droopy's Restless Night (перевод ОРД) / New Mouse in the House (перевод ОРД)
02. Heavy Booking (перевод ОРД) / Matterhorn Droopy (перевод ОРД) / The Puppy Sitter (перевод ОРД)
03. Most Wanted Cat (перевод ОРД) / Pest in the West (перевод ОРД) / Cat in the Fiddle (перевод ОРД)
04. Invasion of the Mouse Snatchers (перевод ОРД) / The Incredible Droop (перевод ОРД) / The Plaid Baron Strikes Again (перевод ОРД)
05. Incredible Shrinking Cat (перевод ОРД) / Scared Bear (перевод ОРД) / When the Rooster Crows (перевод ОРД)
06. School for Cats (перевод ОРД) / Disco Droopy (перевод ОРД) / Pied Piper Puss (перевод ОРД)
07. Under the Big Top (перевод ОРД) / Lumber Jerks (перевод ОРД) / Gopher It, Tom (перевод ОРД)
08. Snowbrawl (перевод ОРД) / Getting the Foot (перевод ОРД) / Kitty Hawk Kitty (перевод ОРД)
09. Get Along, Little Jerry (перевод РТР) / Star-Crossed Wolf (перевод РТР) / Spike's Birthday (перевод РТР)
10. No Museum Peace (перевод РТР) / A Day at the Bakery (перевод ОРД) / Mouse Over Miami (перевод РТР)
11. The Trojan Dog (перевод ОРД) / Foreign Legion Droopy (перевод ОРД) / Pie in the Sky (перевод ОРД)
12. Save That Mouse (перевод ОРД) / Old Mother Hubbard (перевод ОРД) / Say What? (перевод ОРД)
13. Superstocker (перевод РТР) / Droopy's Good Luck Charm (перевод РТР) / The Great Mousini (перевод ОРД)
14. Jerry's Country Cousin (перевод ОРД) / The Great Diamond Heist (перевод ОРД) / Mechanical Failure (перевод ОРД)
15. A Connecticut Mouse in King Arthur's Cork (перевод ОРД, закадровый) / The Great Train Rubbery (перевод ОРД) / Stage Struck (перевод ОРД)

Подробные технические данные

GeneralID : 1 (0x1)Complete name : D:\IPTV\Том и Джерри. Комедийное шоу. (СТС)\The Tom and Jerry Comedy Show.e01.tsFormat : MPEG-TSFile size : 537 MiBDuration : 21mn 6sOverall bit rate mode : VariableOverall bit rate : 3 558 Kbps
VideoID : 67 (0x43)Menu ID : 1 (0x1)Format : AVCFormat/Info : Advanced Video CodecFormat profile : High@L3.0Format settings, CABAC : YesFormat settings, ReFrames : 3 framesCodec ID : 27Duration : 21mn 6sBit rate : 3 124 KbpsWidth : 720 pixelsHeight : 576 pixelsDisplay aspect ratio : 4:3Frame rate : 25.000 fpsStandard : ComponentColor space : YUVChroma subsampling : 4:2:0Bit depth : 8 bitsScan type : InterlacedScan order : Top Field FirstBits/(Pixel*Frame) : 0.301Stream size : 471 MiB (88%)Color primaries : BT.601 PALTransfer characteristics : BT.470 System B, BT.470 System GMatrix coefficients : BT.601Color range : Limited
AudioID : 68 (0x44)Menu ID : 1 (0x1)Format : MPEG AudioFormat version : Version 1Format profile : Layer 2Codec ID : 3Duration : 21mn 6sBit rate mode : ConstantBit rate : 256 KbpsChannel(s) : 2 channelsSampling rate : 48.0 KHzCompression mode : LossyStream size : 38.6 MiB (7%)Language : English

Скриншоты

Вне форума [Профиль] [ЛС]
Похожие темы
Форум Тема Автор Торрент Отв. Посл. сообщение
./templates/default/images/folder_dl.gif Обучающее видео Сергей Брежнев | Мастер-класс по работе с цветом и тонировке (2014) PCRec (H.264) Omen
1 | 0

0 | 2119

51

2014-10-19 12:32
Omen Последнее
Показать сообщения:    
Ответить на тему

Текущее время: Сегодня 14:35

Часовой пояс: GMT + 3



Вы не можете начинать темы
Вы не можете отвечать на сообщения
Вы не можете редактировать свои сообщения
Вы не можете удалять свои сообщения
Вы не можете голосовать в опросах
Вы не можете прикреплять файлы к сообщениям
Вы не можете скачивать файлы