Сегодня идет свободное скачивание без начисления Download

Обычное Шоу / Обычный мультик / Regular Show / Сезон: 5 / Серии: 1-20 из 20 (Джеймс Квинтел / James Quintel) [2013-2014 г., мультфильм, фэнтези, комедия, приключения, WEB-DLRip] Dub (Пифагор) + Original (Eng)

Ответить на тему
 
Автор
Сообщение

Clavik ®

Пол:

Стаж: 4 года 1 месяц

Сообщений: 2445

Откуда: Украина

Торрент-статистика

Пост 15-Апр-2015 19:26

[Цитировать]

-Обычное Шоу / Обычный мультик / Regular Show- Производство: США, Cartoon Network Studios
Жанр: мультфильм, фэнтези, комедия, приключения
Год выпуска: 2014-2015 г.-Озвучка: Студия "Пифагор"
Перевод: Профессиональный (полное дублирование)
Оригинальный аудиопоток: английский-Сезон: 5
Серии: 20 из 20 серий
Продолжительность: ~ 00:22:00 мин серия-Режиссер: Джеймс Квинтел / James Quintel
В ролях: Дж.Дж. Куинтел, Уильям Салиерс, Сэм Марин, Марк Хэмилл, Роджер Крэйг Смит, Джени Хаддад, Кортни Тейлор, Минти Льюис, Стивен Блум, Линда Карделлини-Описание: Сериал рассказывает о приключениях двух 23х-летних приятелей-раздолбаев - голубой сойки по имени Мордекай и енота Ригби.
Устроившись в парк смотрителями, они целыми днями отлынивают от работы и ищут новые способы себя развлечь, что часто влечёт за собой непредсказуемые (и сюрреалистические) последствия. За это они часто попадают под немилость своего босса Бенсона (живой автомат с жевательной резинкой), однако с помощью мудрого йети Скипса практически все проблемы удаётся разрешить.- -Качество видео: WEB-DLRip
Контейнер: AVI
Видео кодек: XviD
Аудио кодек: AC3
Видео: 720x400 (1.80:1), 23.976 fps, XviD build 65 ~1799 kbps avg, 0.26 bit/pixel
Аудио: Russian: 48 kHz, AC3 Dolby Digital, 2/0 (L,R) ch, ~192 kbps
Аудио #2: English: 48 kHz, AC3 Dolby Digital, 2/0 (L,R) ch, ~192 kbps
Cубтитры: нет-

Список серий

1. Страдания и стирка / Серебряный чел (Laundry Woes / Silver Dude)
2. Тачка Бенсона / Каждомясный бутерброд (Benson's Car / Every Meat Burritos)
3. Дружище стена / Прыжок во времени (Wall Buddy / A Skips in Time)
4. Страшилки из парка III (Terror Tales of the Park III)
5. Искусство выживать / Штолы (Survival Skills / Tants)
6. Бросок рикошетом / Могучая башня (Bank Shot / Power Tower)
7. Спецвыпуск в честь Дня благодарения (The Thanksgiving Special)
8. Сердце каскадёра / Новогодний поцелуй (The Heart of a Stuntman / New Year's Kiss)
9. Вышибалы / Переносная уборная (Dodge This / Portable Toilet)
10. Открытка / Cкайдайвинг с бутербродом (The Postcard / Rigby In The Sky With Burrito)
11. Путешествие на дно Ямы / Спасая время (Journey to the Bottom of the Crash Pit / Saving Time)
12. История Скипса (Skips Story)
13. Гитара Рока / Возвращение Мордекая с Ригбычем (Guitar of Rock / Return of Mordecai and the Rigbys)
14. Неудачный портрет / Видюшка 101 (Bad Portrait / Video 101)
15. Люблю, прювет / Игровая площадка(I Like You Hi / Play Date)
16. Эксперт или врун? / Лови волну (Expert or Liar / Catching the Wave)
17. Золотые часы / Покраска (Gold Watch / Paint Job)
18. Забрать торт / Скипс снова в седле (Take the Cake / Skips in the Saddle)
19. Томас наносит ответный удар / Мальчишник! Зинго! (Thomas Fights Back / Bachelor Party! Zingo!)
20. Проблемы с палаткой / Настоящее свидание (Tent Trouble / Real Date)

Media Info

General
Complete name : D:\Regular Show Season 5\Regular.Show.s05e01.rus.eng.avi
Format : AVI
Format/Info : Audio Video Interleave
File size : 353 MiB
Duration : 22mn 27s
Overall bit rate : 2 198 Kbps
Writing application : VirtualDubMod 1.5.10.2 (build 2540/release)
Writing library : VirtualDubMod build 2540/release
Video
ID : 0
Format : MPEG-4 Visual
Format profile : Advanced Simple@L5
Format settings, BVOP : 1
Format settings, QPel : No
Format settings, GMC : No warppoints
Format settings, Matrix : Default (MPEG)
Codec ID : XVID
Codec ID/Hint : XviD
Duration : 22mn 27s
Bit rate : 1 800 Kbps
Width : 720 pixels
Height : 400 pixels
Display aspect ratio : 16:9
Frame rate : 23.976 fps
Color space : YUV
Chroma subsampling : 4:2:0
Bit depth : 8 bits
Scan type : Progressive
Compression mode : Lossy
Bits/(Pixel*Frame) : 0.261
Stream size : 289 MiB (82%)
Writing library : XviD 65
Audio #1
ID : 1
Format : AC-3
Format/Info : Audio Coding 3
Mode extension : CM (complete main)
Format settings, Endianness : Big
Codec ID : 2000
Duration : 22mn 27s
Bit rate mode : Constant
Bit rate : 192 Kbps
Channel(s) : 2 channels
Channel positions : Front: L R
Sampling rate : 48.0 KHz
Bit depth : 16 bits
Compression mode : Lossy
Stream size : 30.9 MiB (9%)
Alignment : Split accross interleaves
Interleave, duration : 42 ms (1.00 video frame)
Interleave, preload duratio : 500 ms
Audio #2
ID : 2
Format : AC-3
Format/Info : Audio Coding 3
Mode extension : CM (complete main)
Format settings, Endianness : Big
Codec ID : 2000
Duration : 22mn 27s
Bit rate mode : Constant
Bit rate : 192 Kbps
Channel(s) : 2 channels
Channel positions : Front: L R
Sampling rate : 48.0 KHz
Bit depth : 16 bits
Compression mode : Lossy
Stream size : 30.9 MiB (9%)
Alignment : Split accross interleaves
Interleave, duration : 42 ms (1.00 video frame)
Interleave, preload duratio : 500 ms
-Скриншоты:-            -

_________________


Вне форума [Профиль] [ЛС]
Показать сообщения:    
Ответить на тему

Текущее время: Сегодня 11:10

Часовой пояс: GMT + 3



Вы не можете начинать темы
Вы не можете отвечать на сообщения
Вы не можете редактировать свои сообщения
Вы не можете удалять свои сообщения
Вы не можете голосовать в опросах
Вы не можете прикреплять файлы к сообщениям
Вы не можете скачивать файлы