Today is a free download without charge Download

(Power Metal) Helloween & Candice Night - Light The Universe [2007 г., DVD]

Reply to topic
 
Author
Message

Sergey Zh. ®

Longevity: 8 years 5 months

Posts: 8

Торрент-статистика

Post 07-Apr-2012 18:47

[Quote]

--Helloween & Candice Night-Light The Universe-- Год выпуска: 2007
Страна: Deutschland
Жанр: Power Metal
Продолжительность: 00:04:44
Качество: DVD
Формат: VOB
Видео кодек: MPEG2
Аудио кодек: AC3
Видео: PAL, 720x576 (4:3), 25,000 кадров/сек, MPEG-2 Video, ~7753 Кбит/сек avg, 0.748 bit/pixel
Аудио: 48,0 КГц, AC3, 2 ch, ~192 Кбит/сек-Описание:
Helloween: .....В 2005 году вышел на двух дисках альбом Keeper of the Seven Keys — The Legacy, заявленный как продолжение первых Keepers и сразу попавший на высокие места в рейтингах продаж. Альбом сопровождался двумя синглами: Mrs. God и Light the Universe. Песня Light the Universe была записана дуэтом с вокалисткой Кэндис Найт из Blackmore's Night, с её участием группа также сняла видеоклип....-

Скриншоты

       
       
       
       
-

MediaInfo

Общее
Полное имя : S:КОНЦЕРТЫ & КЛИПЫHelloween & Candice Night - Light The Universe_.VOB
Формат : MPEG-PS
Размер файла : 275 Мбайт
Продолжительность : 4 м. 44 с.
Режим общего битрейта : Переменный
Общий поток : 8106 Кбит/сек
Видео
Идентификатор : 224 (0xE0)
Формат : MPEG Video
Версия формата : Version 2
Профиль формата : Main@Main
Параметр BVOP формата : Да
Параметр матрицы формата : Выборочная
Параметр GOP формата : M=3, N=12
Продолжительность : 4 м. 44 с.
Вид битрейта : Переменный
Битрейт : 7753 Кбит/сек
Максимальный битрейт : 9000 Кбит/сек
Ширина : 720 пикселей
Высота : 576 пикселей
Соотношение сторон : 4:3
Частота кадров : 25,000 кадров/сек
Стандарт вещания : PAL
Цветовое пространство : YUV
Субдискретизация насыщенности : 4:2:0
Битовая глубина : 8 бит
Тип развёртки : Чересстрочная
Порядок развёртки : Нижнее поле первое
Метод сжатия : С потерями
Бит/(Пиксели*Кадры) : 0.748
Размер потока : 263 Мбайт (96%)
Основные цвета : BT.470-2 System B, BT.470-2 System G
Характеристики трансфера : BT.470-2 System B, BT.470-2 System G
Коэффициенты матрицы : SMPTE 170M
Аудио
Идентификатор : 189 (0xBD)-128 (0x80)
Формат : AC-3
Формат/Информация : Audio Coding 3
Расширение режима : CM (complete main)
Параметр Endianness формата : Big
Режим смешивания : DVD-Video
Продолжительность : 4 м. 44 с.
Вид битрейта : Постоянный
Битрейт : 192 Кбит/сек
Каналы : 2 канала
Расположение каналов : Front: L R
Частота : 48,0 КГц
Битовая глубина : 16 бит
Метод сжатия : С потерями
Размер потока : 6,52 Мбайт (2%)
Меню
-


Last edited by Sergey Zh. on 2012-04-08 06:20; edited 3 times in total
Other forum [Profile] [PM]

andi

Longevity: 9 years 9 months

Posts: 15

Торрент-статистика

Post 08-Apr-2012 02:18 (after 7 hours)

[Quote]

хорошая группа,хорошая песня и хороший клип.
автору спасибо.
Other forum [Profile] [PM]
Similar theme
Forum Topic Author Torrent Replies Last Post
./templates/default/images/folder_dl.gif Metal (Power Metal) [CD] Dawn Of Destiny - Дискография (7CD\'s): 2007-2015, FLAC (image+.cue), lossless Omen
0 | 1

0 | 1765

9

2015-10-28 00:07
Omen Latest
./templates/default/images/folder_dl.gif Metal (Power Metal) Derdian - DNA (Japanese Edition) - 2018 [FLAC, image +.cue, lossless] sergej644
1 | 0

0 | 1520

5

2018-08-24 10:29
sergej644 Latest
./templates/default/images/folder_dl.gif Metal (Power Metal) ShadowQuest - Gallows Of Eden - 2020 [FLAC, image +.cue, lossless] sergej644
1 | 0

0 | 295

1

2020-03-26 23:51
sergej644 Latest
Display posts from previous:    
Reply to topic

The time now is: Today 00:04

All times are GMT + 3 Hours



You cannot post new topics in this forum
You cannot reply to topics in this forum
You cannot edit your posts in this forum
You cannot delete your posts in this forum
You cannot vote in polls in this forum
You cannot attach files in this forum
You cannot download files in this forum