Сегодня идет свободное скачивание без начисления Download

Игра престолов / Game of Thrones / Сезон: 2 / Серии: 1 (10) (Алан Тейлор, Брайан Кирк, Даниэль Минахан) [2012, Фэнтези, Драма, HDTVRip] (LostFilm)

Ответить на тему
 
Автор
Сообщение

nsa1977 ®

Пол:

Стаж: 7 лет 11 месяцев

Сообщений: 1499

Откуда: Пенза

Торрент-статистика

Пост 04-Апр-2012 21:46

[Цитировать]

--
Игра престолов / Game of Thrones

2 сезон: 1 серия из 10
--

Год выпуска: 2012
Страна: США
Жанр: фэнтези, драма, приключения
Продолжительность: ~ 52 минуты
Перевод: Профессиональный (многоголосый, закадровый) - LostFilm
Субтитры: Нет
Перевод: Перевод: DeadMan совместно с 7kingdoms ru
Озвучание: Студия "Kravec"-Режиссёр: Алан Тейлор, Брайан Кирк, Даниэль Минахан--В ролях: Питер Динклэйдж, Марк Эдди, Николай Костер-Валдау, Мишель Фэйрли, Лена Хиди, Эмилия Кларк, Иэн Глен, Эйдан Гиллен и др.-- Сэмпл / ImDB / Кинопоиск--Описание: В Вестеросе наступила осень — предвестник долгой зимы, когда Белые ходоки пробудятся ото сна. Но Стена и её защитники позабыты: три короля претендуют на Железный трон и два верховных лорда провозгласили себя королями над своими землями. Никто из них не желает заключить союзы, и каждый считает свое право на трон священным. И воцарился над миром кровавый хаос войны. И началась великая битва, в которой наградою победителю станет Железный Трон Семи Королевств.
Страшные настали времена — времена отваги и отмщения, интриги и магии. Ныне дева повстречает безумца, а брат занесет меч на брата. Ныне убитые восстанут — и пойдут тропою Тьмы. Ныне вонзится холодная сталь в холодные сердца.
Ныне грядет предначертанная пророчеством БИТВА КОРОЛЕЙ…-Качество: HDTVRip
Формат: AVI
Видео кодек: XviD
Аудио кодек: MP3
Видео: 720x400 (16:9), 23.976 fps, ~1300 kbps, ~0.180 bit/pixel
Аудио Rus: 48 kHz, 2 ch, ~192 kbps |LostFilm|--

Список серий

  • Север помнит / The North Remembers

MediaInfo

Общее
Полное имя : F:\Game.of.Thrones.s02.rus.LostFilm\Game.of.Thrones.s02e01.rus.LostFilm.TV.avi
Формат : AVI
Формат/Информация : Audio Video Interleave
Размер файла : 579 Мбайт
Продолжительность : 55 м.
Общий поток : 1463 Кбит/сек
Программа кодирования : Nandub v1.0rc2
Библиотека кодирования : Nandub build 1853/release
Видео
Идентификатор : 0
Формат : MPEG-4 Visual
Профиль формата : Simple@L3
Параметр BVOP формата : Нет
Параметр QPel формата : Нет
Параметр GMC формата : Без точки перехода
Параметр матрицы формата : Default (H.263)
Идентификатор кодека : XVID
Идентификатор кодека/Подсказка : XviD
Продолжительность : 55 м.
Битрейт : 1260 Кбит/сек
Ширина : 720 пикс.
Высота : 400 пикс.
Соотношение сторон : 16:9
Частота кадров : 23,976 кадр/сек
Цветовое пространство : YUV
Подвыборка цветности : 4:2:0
Битовая глубина : 8 бит
Тип развёртки : Прогрессивная
Метод сжатия : С потерями
Бит/(Пиксели*Кадры) : 0.183
Размер потока : 499 Мбайт (86%)
Библиотека кодирования : XviD 1.2.1 (UTC 2008-12-04)
Аудио
Идентификатор : 1
Формат : MPEG Audio
Версия формата : Version 1
Профиль формата : Layer 3
Режим : Joint stereo
Расширение режима : MS Stereo
Идентификатор кодека : 55
Идентификатор кодека/Подсказка : MP3
Продолжительность : 55 м.
Вид битрейта : Переменный
Битрейт : 192 Кбит/сек
Каналы : 2 канала
Частота : 48,0 КГц
Метод сжатия : С потерями
Размер потока : 75,0 Мбайт (13%)
Выравнивание : Соединение по промежуткам
Продолжительность промежутка : 24 мс. (0,58 видеокадр)
Время предзагрузки промежутка : 459 ms
Библиотека кодирования : LAME3.97b
Настройки программы : -m j -V 4 -q 3 -lowpass 18.6 --abr 192

Внимание! Раздача ведётся путём добавления новых серий.

Внимание! Раздача ведётся путём добавления новых серий; при каждом добавлении создётся новый торрент. Чтобы начать докачку новой серии, пользователям необходимо сделать следующее:
  • Остановить скачивание.
  • Удалить старый торрент у себя из клиента (старые серии удалять не надо).
  • Скачать новый торрент и запустить его у себя в клиенте вместо старого, при этом указать клиенту путь в старую папку куда и должно происходить скачивание новых серий.
Ваш клиент при этом должен произвести хеширование (проверку) старой папки (если не производит сам - помогите ему сделать это), и будет докачивать только те серии которых у вас ещё нет. Старые серии при этом не удаляются, а продолжают раздаваться!
Eсли вы уже удалили старые серии, то предотвратить повторную закачку старых серий можно, отжав галочку в соответсвующих местах при запуске нового торрента. По возможности, желательно не удалять старые серии как можно дольше чтобы релизёр не столько продолжал раздавать старые серии, а смог сконцентрироваться на новых.
[
--          

_________________
Вне форума [Профиль] [ЛС]

радист

Пол:

Стаж: 7 лет 5 месяцев

Сообщений: 169

Торрент-статистика

Пост 04-Апр-2012 22:27 (спустя 40 минут)

[Цитировать]

Здорово-спасибо!

_________________
Дураков на свете не много, но расставлены они так грамотно, что встречаются на каждом шагу.
Вне форума [Профиль] [ЛС]

BoxeR

Пол:

Стаж: 6 лет 1 месяц

Сообщений: 638

Торрент-статистика

Пост 04-Апр-2012 22:51 (спустя 23 минуты)

[Цитировать]

буду ждать полный сезон

_________________
Вне форума [Профиль] [ЛС]
Показать сообщения:    
Ответить на тему

Текущее время: Сегодня 00:16

Часовой пояс: GMT + 3



Вы не можете начинать темы
Вы не можете отвечать на сообщения
Вы не можете редактировать свои сообщения
Вы не можете удалять свои сообщения
Вы не можете голосовать в опросах
Вы не можете прикреплять файлы к сообщениям
Вы не можете скачивать файлы