Today is a free download without charge Download

Александр Медведев | 10 ноу-хау на съёмке, до которых вы не додумались (2013) PCRec

Reply to topic
 
Author
Message

Omen ®

Longevity: 6 years 6 months

Posts: 181112

Торрент-статистика

Post 03-Apr-2015 20:51

[Quote]

Александр Медведев
10 ноу-хау на съёмке, до которых вы не додумались
- Автор (режиссер): Александр Медведев
Жанр: Фотосъемка
Продолжительность: 04:41:40
Качество видео: PCRec
Видеокодек: AVC
Битрейт видео: ~30 - 781 kbps
Размер кадра: 768х432
Аудиокодек: AAC 2.0
Битрейт аудио: 125 - 129 kbps (CBR), 2 Ch, 44100 Hz
Описание:
Мастер-класс от Fotoshkola.net.
Темы мастер-класса:
Позирование, выбор ракурса, свет, экспозиция и другие моменты;
Как очень сильно облегчить себе жизнь в 10 конкретных советах с подробным разбором;
Как сэкономить себе пару лет хождения по граблям и поднять свой уровень скачком?
Бонус:
Александр Медведев - Системы ценностей и как с ними работать.
Дарья Булавина - Фотографии известных людей.

MediaInfo:

Код:
Общее
Полное имя                               : C:\Медведев А. - 10 ноу-хау на съёмке, до которых вы не додумались - 2013\Бонус\Булавина Д. - Фотографии известных людей.flv
Формат                                   : Flash Video
Размер файла                             : 84,2 Мбайт
Продолжительность                        : 59 м.
Общий поток                              : 198 Кбит/сек
Видео
Формат                                   : AVC
Формат/Информация                        : Advanced Video Codec
Профиль формата                          : [url=mailto:Main@L4.1]Main@L4.1[/url]
Параметр CABAC формата                   : Да
Параметр ReFrames формата                : 1 кадр
Параметр GOP формата                     : M=1, N=60
Идентификатор кодека                     : 7
Продолжительность                        : 59 м.
Битрейт                                  : 781 Кбит/сек
Ширина                                   : 768 пикселей
Высота                                   : 432 пикселя
Соотношение сторон                       : 16:9
Режим частоты кадров                     : Постоянный
Частота кадров                           : 5,000 кадров/сек
Цветовое пространство                    : YUV
Субдискретизация насыщенности            : 4:2:0
Битовая глубина                          : 8 бит
Тип развёртки                            : Прогрессивная
Бит/(Пиксели*Кадры)                      : 0.471
Размер потока                            : 333 Мбайт
Аудио
Формат                                   : AAC
Формат/Информация                        : Advanced Audio Codec
Профиль формата                          : LC
Идентификатор кодека                     : 10
Продолжительность                        : 59 м.
Битрейт                                  : 125 Кбит/сек
Каналы                                   : 2 канала
Расположение каналов                     : Front: L R
Частота                                  : 44,1 КГц
Метод сжатия                             : С потерями
Размер потока                            : 53,2 Мбайт (63%)
Скриншоты:
       

Дополнительные скриншоты:

       
 
Other forum [Profile] [PM]
Similar theme
Forum Topic Author Torrent Replies Last Post
./templates/default/images/folder_dl.gif Обучающее видео Александр Свет | Профессиональная обработка RAW в Capture One Pro 7 (2013) [PCRec] UndegraundMen
1 | 0

0 | 3830

50

2013-11-28 23:01
UndegraundMen Latest
./templates/default/images/folder_dl.gif Обучающее видео Алексей Пахомов | Ремонт электронных блоков управления современных автомобилей (2013) WEB-DL Omen
1 | 0

0 | 2431

117

2014-11-16 13:16
Omen Latest
./templates/default/images/folder_dl.gif Обучающее видео [Profileschool] Алексей Шадрин | Фундаментальная цветокоррекция фотографических изображений (2014) PCRec Omen
1 | 0

0 | 3407

98

2015-01-07 14:53
Omen Latest
./templates/default/images/folder_dl.gif Обучающее видео [Profileschool] Алексей Шадрин | Секреты современного искусства - Марк Шагал (2015) PCRec Omen
1 | 0

0 | 1675

34

2015-04-06 16:23
Omen Latest
./templates/default/images/folder_dl.gif Обучающее видео [Profileschool] Алексей Шадрин | Пленочная фотография: за и против (Алексей Шадрин)[ 2015.,Обучающее видео]PCRec sashau
1 | 0

0 | 2595

28

2015-04-13 04:16
sashau Latest
./templates/default/images/folder_dl.gif Обучающее видео Алексей Пахомов | Анализ осциллограмм [7 уроков] (2016) PCRec Omen
1 | 0

0 | 1825

39

2016-03-09 06:29
Omen Latest
./templates/default/images/folder_dl.gif Медицина и Здоровье Александр Мясников | Энциклопедия доктора Мясникова о самом главном [3 тома] (2015-2017) [FB2] }{@R0N
1 | 0

0 | 7920

30

2017-11-20 21:19
}{@R0N Latest
./templates/default/images/folder_dl.gif Новинки (BD|HDTV|DVD) Короче / Downsizing (Александр Пэйн) [2017 г., фантастика, драма, комедия, BDRip 1080p] DVO Theseus
1 | 0

0 | 722

9

2018-03-07 23:27
Theseus Latest
./templates/default/images/folder_dl.gif Разное Александр Матанцев | Поздравления от души (2018) [PDF] }{@R0N
1 | 0

0 | 373

6

2018-10-21 17:47
}{@R0N Latest
./templates/default/images/folder_dl.gif Психология, Тренинг, Саморазвитие Александр Свияш | Как разумные люди создают безумный мир. Негативные эмоции. Поймать и обезвредить (2018) [PDF] }{@R0N
1 | 0

0 | 545

1

2019-03-17 22:54
}{@R0N Latest
Display posts from previous:    
Reply to topic

The time now is: Today 07:06

All times are GMT + 3 Hours



You cannot post new topics in this forum
You cannot reply to topics in this forum
You cannot edit your posts in this forum
You cannot delete your posts in this forum
You cannot vote in polls in this forum
You cannot attach files in this forum
You cannot download files in this forum