Сегодня идет свободное скачивание без начисления Download

Александр Медведев | 10 ноу-хау на съёмке, до которых вы не додумались (2013) PCRec

Ответить на тему
 
Автор
Сообщение

Omen ®

Стаж: 6 лет 3 месяца

Сообщений: 184291

Торрент-статистика

Пост 03-Апр-2015 20:51

[Цитировать]

Александр Медведев
10 ноу-хау на съёмке, до которых вы не додумались
- Автор (режиссер): Александр Медведев
Жанр: Фотосъемка
Продолжительность: 04:41:40
Качество видео: PCRec
Видеокодек: AVC
Битрейт видео: ~30 - 781 kbps
Размер кадра: 768х432
Аудиокодек: AAC 2.0
Битрейт аудио: 125 - 129 kbps (CBR), 2 Ch, 44100 Hz
Описание:
Мастер-класс от Fotoshkola.net.
Темы мастер-класса:
Позирование, выбор ракурса, свет, экспозиция и другие моменты;
Как очень сильно облегчить себе жизнь в 10 конкретных советах с подробным разбором;
Как сэкономить себе пару лет хождения по граблям и поднять свой уровень скачком?
Бонус:
Александр Медведев - Системы ценностей и как с ними работать.
Дарья Булавина - Фотографии известных людей.

MediaInfo:

Код:
Общее
Полное имя                               : C:\Медведев А. - 10 ноу-хау на съёмке, до которых вы не додумались - 2013\Бонус\Булавина Д. - Фотографии известных людей.flv
Формат                                   : Flash Video
Размер файла                             : 84,2 Мбайт
Продолжительность                        : 59 м.
Общий поток                              : 198 Кбит/сек
Видео
Формат                                   : AVC
Формат/Информация                        : Advanced Video Codec
Профиль формата                          : [url=mailto:Main@L4.1]Main@L4.1[/url]
Параметр CABAC формата                   : Да
Параметр ReFrames формата                : 1 кадр
Параметр GOP формата                     : M=1, N=60
Идентификатор кодека                     : 7
Продолжительность                        : 59 м.
Битрейт                                  : 781 Кбит/сек
Ширина                                   : 768 пикселей
Высота                                   : 432 пикселя
Соотношение сторон                       : 16:9
Режим частоты кадров                     : Постоянный
Частота кадров                           : 5,000 кадров/сек
Цветовое пространство                    : YUV
Субдискретизация насыщенности            : 4:2:0
Битовая глубина                          : 8 бит
Тип развёртки                            : Прогрессивная
Бит/(Пиксели*Кадры)                      : 0.471
Размер потока                            : 333 Мбайт
Аудио
Формат                                   : AAC
Формат/Информация                        : Advanced Audio Codec
Профиль формата                          : LC
Идентификатор кодека                     : 10
Продолжительность                        : 59 м.
Битрейт                                  : 125 Кбит/сек
Каналы                                   : 2 канала
Расположение каналов                     : Front: L R
Частота                                  : 44,1 КГц
Метод сжатия                             : С потерями
Размер потока                            : 53,2 Мбайт (63%)
Скриншоты:
       

Дополнительные скриншоты:

       
 
Вне форума [Профиль] [ЛС]
Похожие темы
Форум Тема Автор Торрент Отв. Посл. сообщение
./templates/default/images/folder_dl.gif Отечественные cериалы Вторые ( 1-8 серия из 8 ) (Александр Даруга) [2010 г.] (Драма, военный) [DVDRip] nsa1977
1 | 0

0 | 872

10

2011-05-09 17:05
nsa1977 Последнее
./templates/default/images/folder_dl.gif Отечественные cериалы Защита Красина / Сезон: 1 Серии: 1-12 из 12 (Алексей Шикин) [2006, детектив, криминал, DVB] Omen
0 | 1

0 | 457

0

2013-01-13 22:04
Omen Последнее
./templates/default/images/folder_dl.gif Обучающее видео Алекс Мэй | Академия секса (2012) [SATRip] UndegraundMen
1 | 0

0 | 11677

706

2013-09-30 23:05
UndegraundMen Последнее
./templates/default/images/folder_dl.gif Обучающее видео Александр Свет | Профессиональная обработка RAW в Capture One Pro 7 (2013) [PCRec] UndegraundMen
1 | 0

0 | 3518

50

2013-11-28 23:01
UndegraundMen Последнее
./templates/default/images/folder_dl.gif Историческая литература Семен Федосеев, Алексей Ардашев | Учебник выживания снайпера. Стреляй редко, но метко! (2014) [FB2] Omen
1 | 0

0 | 943

10

2014-09-01 11:46
Omen Последнее
./templates/default/images/folder_dl.gif Обучающее видео Алекс Мэй | Сексуальные позиции. Для максимального наслаждения (2013) [CamRip] Omen
1 | 0

0 | 2160

208

2015-05-07 00:08
Omen Последнее
./templates/default/images/folder_dl.gif Обучающее видео Александр Амбалов | Цветкор в Premiere (2017) PCRec Omen
1 | 0

0 | 688

11

2016-03-09 06:10
Omen Последнее
./templates/default/images/folder_dl.gif Обучающее видео Александр Свет | Capture One Pro. Профессиональная обработка RAW (2017) PCRec Omen
1 | 0

0 | 410

6

2016-03-09 06:45
Omen Последнее
./templates/default/images/folder_dl.gif Обучающее видео Александр Медведев | Фотография по полкам. Свет. Часть 2 (2016) PCRec [H.264/1080p] Omen
1 | 0

0 | 652

10

2016-03-09 15:01
Omen Последнее
./templates/default/images/folder_dl.gif Психология, Тренинг, Саморазвитие Алекс Лесли | ЖЖизнь без трусов (2011) [MP3] moralis
1 | 0

0 | 1549

10

2016-04-10 21:57
moralis Последнее
Показать сообщения:    
Ответить на тему

Текущее время: Сегодня 03:30

Часовой пояс: GMT + 3



Вы не можете начинать темы
Вы не можете отвечать на сообщения
Вы не можете редактировать свои сообщения
Вы не можете удалять свои сообщения
Вы не можете голосовать в опросах
Вы не можете прикреплять файлы к сообщениям
Вы не можете скачивать файлы