Сегодня идет свободное скачивание без начисления Download

Симпсоны / The Simpsons / Сезон: 26 / Серии: 1-14 из 22 (Мэтт Гроунинг / Matt Groening) [2014, Комедия, сатира, WEB-DL 720p] MVO (OmskBird)

Ответить на тему
 
Автор
Сообщение

Omen ®

Стаж: 4 года 10 месяцев

Сообщений: 190643

Торрент-статистика

Пост 13-Мар-2015 00:02

[Цитировать]

Симпсоны / The Simpsons
Страна: США
Жанр: Комедия, сатира
Продолжительность: ~ 00:23:00
Год выпуска: 2014
Перевод: Любительский (многоголосый закадровый) | OmskBird
Русские субтитры: нет
Режиссёр: Мэтт Гроунинг / Matt Groening
Роли озвучивали: Дэн Кастелланета, Джули Кавнер, Нэнси Картрайт, Ярдли Смит, Гарри Ширер, Хэнк Азария, Памела Хейден, Тресс МакНилл, Карл Видерготт, Мэгги Росвэлл и др.
Описание: Симпсоны живут в вымышленном городе Спрингфилд, со своим обществом и историей. Гомер - отец семейства, который дает плохие советы и работает инспектором безопасности на атомной электростанции; Мардж - любящая мать и жена, старается сохранить спокойствие в семье; Барт - 10 летний хулиган; Лиза - философский 8-летний ребенок; и Мэгги - младенец, который общается посредством соски.
Доп. информация:
Роли озвучивали • Павел Ярощик, Ольга Федорова, Егор Шилов, Анна Рязанова, Полина Набиева и Владислав Филиппов
Семпл: http://sendfile.su/1094447
Качество: WEB-DL 720p
Формат: MKV
Видео: MPEG-4 AVC, ~ 4000 kbps, 1280x720 (1.778), 23.976 fps , ~ 0.161 bit/pixel
Аудио: AC-3, 48 KHz, 6 ch, 384 kbps | OmskBird
Аудио 2: AC-3, 48 KHz, 6 ch, 384 kbps
Субтитры: SRT английский

Релиз

Работа со звуком • Павел Ярощик
Монтаж, работа со звуком : Skyns61 (13-14 серии)
Релиз подготовил • Gater (1-12), Skyns61(13, 14)
Чистый Voiceover от «OmskBird» был наложен на центр оригинального AC3.

MediaInfo

ОбщееУникальный идентификатор : 250857938750296190018540847568969116467 (0xBCB97B4A4F9BE6758884C716F1D1AB33)Полное имя : F:\Films\The Simpsons S26 WEB-DL 720p (OmskBird)\The Simpsons S26E01 WEB-DL 720p (OmskBird).mkvФормат : MatroskaВерсия формата : Version 2Размер файла : 724 МбайтПродолжительность : 22 м.Общий поток : 4414 Кбит/секДата кодирования : UTC 2014-10-01 14:04:25Программа кодирования : mkvmerge v4.0.0 ('The Stars were mine') сборка от Jun 6 2010 16:18:42Библиотека кодирования : libebml v1.0.0 + libmatroska v1.0.0
ВидеоИдентификатор : 1Формат : AVCФормат/Информация : Advanced Video CodecПрофиль формата : High@L3.1Параметр CABAC формата : НетПараметр ReFrames формата : 2 кадраПараметр GOP формата : N=1Идентификатор кодека : V_MPEG4/ISO/AVCПродолжительность : 22 м.Битрейт : 3558 Кбит/секШирина : 1280 пикселейВысота : 720 пикселейСоотношение сторон : 16:9Режим частоты кадров : ПостоянныйЧастота кадров : 23,976 кадра/секЦветовое пространство : YUVСубдискретизация насыщенности : 4:2:0Битовая глубина : 8 битТип развёртки : ПрогрессивнаяБит/(Пиксели*Кадры) : 0.161Размер потока : 584 Мбайт (81%)Язык : EnglishDefault : НетForced : НетОсновные цвета : BT.709Характеристики трансфера : BT.709Коэффициенты матрицы : BT.709
Аудио #1Идентификатор : 2Формат : AC-3Формат/Информация : Audio Coding 3Расширение режима : CM (complete main)Параметр Endianness формата : BigИдентификатор кодека : A_AC3Продолжительность : 22 м.Вид битрейта : ПостоянныйБитрейт : 384 Кбит/секКаналы : 6 каналовРасположение каналов : Front: L C R, Side: L R, LFEЧастота : 48,0 КГцБитовая глубина : 16 битМетод сжатия : С потерямиРазмер потока : 63,0 Мбайт (9%)Язык : RussianDefault : ДаForced : Нет
Аудио #2Идентификатор : 3Формат : AC-3Формат/Информация : Audio Coding 3Расширение режима : CM (complete main)Параметр Endianness формата : BigИдентификатор кодека : A_AC3Продолжительность : 22 м.Вид битрейта : ПостоянныйБитрейт : 384 Кбит/секКаналы : 6 каналовРасположение каналов : Front: L C R, Side: L R, LFEЧастота : 48,0 КГцБитовая глубина : 16 битМетод сжатия : С потерямиРазмер потока : 63,0 Мбайт (9%)Язык : EnglishDefault : НетForced : Нет
ТекстИдентификатор : 4Формат : UTF-8Идентификатор кодека : S_TEXT/UTF8Идентификатор кодека/Информация : UTF-8 Plain TextЯзык : EnglishDefault : НетForced : Нет

Скриншоты

Внимание! Раздача ведётся путём добавления новых серий.


Внимание! Раздача ведётся путём добавления новых серий; при каждом добавлении создётся новый торрент. Чтобы начать докачку новой серии, пользователям необходимо сделать следующее:
Остановить скачивание.
Удалить старый торрент у себя из клиента (старые серии удалять не надо).
Скачать новый торрент и запустить его у себя в клиенте вместо старого, при этом указать клиенту путь в старую папку куда и должно происходить скачивание новых серий.
Ваш клиент при этом должен произвести хеширование (проверку) старой папки (если не производит сам - помогите ему сделать это), и будет докачивать только те серии которых у вас ещё нет. Старые серии при этом не удаляются, а продолжают раздаваться!
Eсли вы уже удалили старые серии, то предотвратить повторную закачку старых серий можно, отжав галочку в соответсвующих местах при запуске нового торрента. По возможности, желательно не удалять старые серии как можно дольше чтобы релизёр не столько продолжал раздавать старые серии, а смог сконцентрироваться на новых.
Вне форума [Профиль] [ЛС]
Показать сообщения:    
Ответить на тему

Текущее время: Сегодня 17:30

Часовой пояс: GMT + 3



Вы не можете начинать темы
Вы не можете отвечать на сообщения
Вы не можете редактировать свои сообщения
Вы не можете удалять свои сообщения
Вы не можете голосовать в опросах
Вы не можете прикреплять файлы к сообщениям
Вы не можете скачивать файлы