Сегодня идет свободное скачивание без начисления Download

Том и Джерри: Комедийное шоу / The Tom and Jerry Comedy Show / Сезон: 1 / Серии: 2 из 15 (Гвен Уэтзер / Gwen Wetzler) [1980-1982, Мультсериал, детский, семейный, приключения, DVB-T2] Dub (CТС)

Ответить на тему
 
Автор
Сообщение

Omen ®

Стаж: 4 года 10 месяцев

Сообщений: 190643

Торрент-статистика

Пост 09-Мар-2015 21:01

[Цитировать]

Том и Джерри: Комедийное шоу / The Tom and Jerry Comedy Show
Страна: США
Жанр: Мультсериал, детский, семейный, приключения
Продолжительность: 00:22:00
Год выпуска: 1980-1982
Перевод: Профессиональный (дублированный)
Русские субтитры: нет
Режиссёр: Гвен Уэтзер / Gwen Wetzler
Описание: Сюжет большинства серий мультфильма основан на тщетных попытках Тома поймать мышонка и на увечьях и разрушениях, которые из всего этого следуют. Поскольку в некоторых сериях персонажи довольно мирно уживаются между собой, остаётся непонятным, за что Том постоянно преследует Джерри. Надо признать, что погони доставляют удовольствие им обоим.
Доп. информация: В данной раздаче представлен новый дублированный перевод, отсутствовавший ранее на трекере.
Семпл
Релиз:
Качество: DVB-T2
Формат: TS
Видео: AVC, 720x576, 25 fps, 2730 kbps
Аудио: MP2, 192 Kbps, 48.0 KHz, 2 ch
Субтитры: отсутствуют

Внимание ! Раздача ведётся путём добавления новых серий

Внимание! Раздача ведётся путём добавления новых серий; при каждом добавлении создётся новый торрент. Чтобы начать докачку новой серии, пользователям необходимо сделать следующее:
(1) остановить скачивание,
(2) удалить старый торрент у себя из клиента (старые серии удалять не надо),
(3) скачать новый торрент и запустить его у себя в клиенте вместо старого, при этом указать клиенту путь в старую папку куда и должно происходить скачивание новых серий.
Ваш клиент при этом должен произвести хеширование (проверку) старой папки (если не производит сам - помогите ему сделать это), и будет докачивать только те серии которых у вас ещё нет. Старые серии при этом не удаляются, а продолжают раздаваться!
Eсли вы уже удалили старые серии, то предотвратить повторную закачку старых серий можно, отжав галочку в соответсвующих местах при запуске нового торрента. По возможности, желательно не удалять старые серии как можно дольше чтобы релизёр не столько продолжал раздавать старые серии, а смог сконцентрироваться на новых.

Список серий

02. Heavy Booking / Matterhorn Droopy / The Puppy Sitter

Подробные технические данные

ОбщееИдентификатор : 1 (0x1)Полное имя : F:\Tom and Jerry Comedy Show.DVB.DUB\02.Heavy Booking. Matterhorn Droopy.The Puppy Sitters.tsФормат : MPEG-TSРазмер файла : 464 МбайтПродолжительность : 21 м.Режим общего битрейта : ПеременныйОбщий поток : 3076 Кбит/сек
ВидеоИдентификатор : 2031 (0x7EF)Идентификатор меню : 1 (0x1)Формат : AVCФормат/Информация : Advanced Video CodecПрофиль формата : Main@L3.0Параметр CABAC формата : ДаПараметр ReFrames формата : 3 кадраИдентификатор кодека : 27Продолжительность : 21 м.Битрейт : 2730 Кбит/секШирина : 720 пикселейВысота : 576 пикселейСоотношение сторон : 4:3Частота кадров : 25,000 кадров/секСтандарт вещания : ComponentЦветовое пространство : YUVСубдискретизация насыщенности : 4:2:0Битовая глубина : 8 битТип развёртки : ЧересстрочнаяПорядок развёртки : Верхнее поле первоеБит/(Пиксели*Кадры) : 0.263Размер потока : 412 Мбайт (89%)Основные цвета : BT.601 PALХарактеристики трансфера : BT.470 System B, BT.470 System GКоэффициенты матрицы : BT.601colour_range : Limited
АудиоИдентификатор : 2032 (0x7F0)Идентификатор меню : 1 (0x1)Формат : MPEG AudioВерсия формата : Version 1Профиль формата : Layer 2Идентификатор кодека : 3Продолжительность : 21 м.Вид битрейта : ПостоянныйБитрейт : 192 Кбит/секКаналы : 2 каналаЧастота : 48,0 КГцМетод сжатия : С потерямиРазмер потока : 29,0 Мбайт (6%)Язык : English

Скриншоты

Вне форума [Профиль] [ЛС]
Похожие темы
Форум Тема Автор Торрент Отв. Посл. сообщение
./templates/default/images/folder_dl.gif Обучающее видео Сергей Брежнев | Мастер-класс по работе с цветом и тонировке (2014) PCRec (H.264) Omen
1 | 0

0 | 1961

49

2014-10-19 12:32
Omen Последнее
Показать сообщения:    
Ответить на тему

Текущее время: Сегодня 10:26

Часовой пояс: GMT + 3



Вы не можете начинать темы
Вы не можете отвечать на сообщения
Вы не можете редактировать свои сообщения
Вы не можете удалять свои сообщения
Вы не можете голосовать в опросах
Вы не можете прикреплять файлы к сообщениям
Вы не можете скачивать файлы