Today is a free download without charge Download

(Symphonic Power Metal) [CD] Ancient Bards - Дискография (Original Recording) - 2010-2014, FLAC (image+.cue), lossless

Reply to topic
 
Author
Message

Omen ®

Longevity: 7 years 1 month

Posts: 181090

Торрент-статистика

Post 26-Feb-2015 06:00

[Quote]


Ancient Bards - Дискография

Жанр: Symphonic Power Metal Носитель: CD Год издания: 2010-2014
Страна исполнителя (группы): Italy Продолжительность: 03:16:39
Аудиокодек: FLAC (*.flac) Тип рипа: image+.cue Битрейт аудио: lossless
Источник: CD собственной коллекции Наличие сканов: Да (Complete 600 DPI)
-

2010 - The Alliance Of The Kings [Limb Music GmbH LMP 1002-119 CD] (00:58:09)


01. Prelude 01:55
02. The Birth of Evil 05:31
03. Four Magic Elements 04:59
04. Only the Brave 06:15
05. Frozen Mind 07:24
06. Nightfall in Icy Forest 01:17
07. Lode al Padre 06:26
08. Daltor the Dragonhunter 08:42
09. Farewell My Hero 06:51
10. Faithful to Destiny 08:45
Sara Squadrani - Vocals
Daniele Mazza - Keyboards, Barbarian Choir
Claudio Pietronik - Guitars
Fabio Balducci - Guitars
Martino Garattoni - Bass
Alessandro Carichini - Drums
Simone Mularoni - Recording, Mixing, Producer (supervisor)
Gabriele Ravaglia - Mastering, Producer (supervisor)
Frusci Ursula - Photography

Лог создания рипа

Exact Audio Copy V1.0 beta 3 from 29. August 2011
EAC extraction logfile from 17. February 2015, 15:44
Ancient Bards / The Alliance Of The Kings
Used drive : ATAPI iHAS122 W Adapter: 2 ID: 0
Read mode : SecureUtilize accurate stream : YesDefeat audio cache : YesMake use of C2 pointers : No
Read offset correction : 48Overread into Lead-In and Lead-Out : NoFill up missing offset samples with silence : YesDelete leading and trailing silent blocks : NoNull samples used in CRC calculations : YesUsed interface : Installed external ASPI interface
Used output format : User Defined EncoderSelected bitrate : 1024 kBit/sQuality : HighAdd ID3 tag : NoCommand line compressor : C:\Program Files\FLAC\flac.exeAdditional command line options : -V -8 -T "Date=%year%" -T "Genre=%genre%" -T"COMMENT=Ripped by Ilijan" -8 -V %source%
TOC of the extracted CD
Track | Start | Length | Start sector | End sector --------------------------------------------------------- 1 | 0:00.00 | 1:55.07 | 0 | 8631 2 | 1:55.07 | 5:31.35 | 8632 | 33491 3 | 7:26.42 | 4:58.73 | 33492 | 55914 4 | 12:25.40 | 6:15.21 | 55915 | 84060 5 | 18:40.61 | 7:24.36 | 84061 | 117396 6 | 26:05.22 | 1:16.73 | 117397 | 123169 7 | 27:22.20 | 6:26.49 | 123170 | 152168 8 | 33:48.69 | 8:42.63 | 152169 | 191381 9 | 42:31.57 | 6:51.63 | 191382 | 222269 10 | 49:23.45 | 8:45.13 | 222270 | 261657
Range status and errors
Selected range
Filename D:\ИЛИЯН\Ancient Bards - The Alliance Of The Kings.wav
Peak level 100.0 % Extraction speed 4.0 X Range quality 100.0 % Test CRC C9A4BF37 Copy CRC C9A4BF37 Copy OK
No errors occurred
AccurateRip summary
Track 1 accurately ripped (confidence 4) [DD1129CE] (AR v2)Track 2 accurately ripped (confidence 4) [23DD372D] (AR v2)Track 3 accurately ripped (confidence 4) [F15D72C1] (AR v2)Track 4 accurately ripped (confidence 4) [A03A2831] (AR v2)Track 5 accurately ripped (confidence 4) [6E18AF38] (AR v2)Track 6 accurately ripped (confidence 4) [A750D494] (AR v2)Track 7 accurately ripped (confidence 4) [AB254575] (AR v2)Track 8 accurately ripped (confidence 4) [AE7DD936] (AR v2)Track 9 accurately ripped (confidence 4) [5D797008] (AR v2)Track 10 accurately ripped (confidence 3) [6971499C] (AR v2)
All tracks accurately ripped
End of status report
---- CUETools DB Plugin V2.1.3
[CTDB TOCID: 7slNtccWTahsUnztYLl9n6GNyVY-] found, Submit result: 7slNtccWTahsUnztYLl9n6GNyVY- has been confirmed[53db0311] (10/10) Accurately ripped
==== Log checksum 8B014A5C96E3511E93F51DF5D342E782950C4BFB07D7612F3C4DA83C005D0C40 ====

2011 - Soulless Child [Limb Music GmbH LMP 1111-129 CD] (01:06:35)


01. Struggle for Life 01:53
02. To the Master of Darkness 07:33
03. Gates of Noland 05:130
04. Broken Illusion 05:110
05. All That Is True 09:550
06. Valiant Ride 04:130
07. Dinanzi al flagello 01:290
08. Soulless Child 09:150
09. Through My Veins 07:190
10. Hope Dies Last 14:31
Sara Squadrani - Vocals
Claudio Pietronik - Guitars
Fabio Balducci - Guitars
Daniele Mazza - Keyboards, The Ancient Bards Choir, Barbarian Choir on track 6
Martino Garattoni - Bass
Federico Gatti - Drums
Felipe Machado Franco - Cover art
Matteo Ermeti - Photography
Simone Mularoni - Mixing, Mastering, Producer (supervisor), Engineering

Лог создания рипа

Exact Audio Copy V1.0 beta 3 from 29. August 2011
EAC extraction logfile from 17. February 2015, 16:26
Ancient Bards / Soulless Child
Used drive : ATAPI iHAS122 W Adapter: 2 ID: 0
Read mode : SecureUtilize accurate stream : YesDefeat audio cache : YesMake use of C2 pointers : No
Read offset correction : 48Overread into Lead-In and Lead-Out : NoFill up missing offset samples with silence : YesDelete leading and trailing silent blocks : NoNull samples used in CRC calculations : YesUsed interface : Installed external ASPI interface
Used output format : User Defined EncoderSelected bitrate : 1024 kBit/sQuality : HighAdd ID3 tag : NoCommand line compressor : C:\Program Files\FLAC\flac.exeAdditional command line options : -V -8 -T "Date=%year%" -T "Genre=%genre%" -T"COMMENT=Ripped by Ilijan" -8 -V %source%
TOC of the extracted CD
Track | Start | Length | Start sector | End sector --------------------------------------------------------- 1 | 0:00.00 | 1:53.13 | 0 | 8487 2 | 1:53.13 | 7:33.50 | 8488 | 42512 3 | 9:26.63 | 5:13.10 | 42513 | 65997 4 | 14:39.73 | 5:11.49 | 65998 | 89371 5 | 19:51.47 | 9:55.47 | 89372 | 134043 6 | 29:47.19 | 4:13.14 | 134044 | 153032 7 | 34:00.33 | 1:29.43 | 153033 | 159750 8 | 35:30.01 | 9:15.55 | 159751 | 201430 9 | 44:45.56 | 7:19.48 | 201431 | 234403 10 | 52:05.29 | 14:29.68 | 234404 | 299646
Range status and errors
Selected range
Filename D:\ИЛИЯН\Ancient Bards - Soulless Child.wav
Peak level 100.0 % Extraction speed 3.4 X Range quality 99.9 % Test CRC 19F3ED22 Copy CRC 19F3ED22 Copy OK
No errors occurred
AccurateRip summary
Track 1 accurately ripped (confidence 7) [C6EC6739] (AR v2)Track 2 accurately ripped (confidence 7) [B7625CBC] (AR v2)Track 3 accurately ripped (confidence 7) [2B0EAAD8] (AR v2)Track 4 accurately ripped (confidence 7) [122EF43B] (AR v2)Track 5 accurately ripped (confidence 7) [B2B88EB1] (AR v2)Track 6 accurately ripped (confidence 7) [EAE0055D] (AR v2)Track 7 accurately ripped (confidence 7) [8FF12A32] (AR v2)Track 8 accurately ripped (confidence 7) [1824EE89] (AR v2)Track 9 accurately ripped (confidence 7) [5182F0E6] (AR v2)Track 10 accurately ripped (confidence 7) [4B54FB3D] (AR v2)
All tracks accurately ripped
End of status report
---- CUETools DB Plugin V2.1.3
[CTDB TOCID: MrlfIrEzkEqzSZSVupXCJFyGAY8-] found, Submit result: MrlfIrEzkEqzSZSVupXCJFyGAY8- has been confirmed[da71fe00] (9/9) Accurately ripped
==== Log checksum 38C1A66484E6228C22ABC4B3F73EABEADFE34C4DE9B116CA9EB96E1EA6FD1D92 ====

2014 - A New Dawn Ending [Limb Music GmbH LMP 1404-145 CD] (01:11:54)


01. Before the Storm 01:39
02. A Greater Purpose 07:55
03. Flaming Heart 06:52
04. Across This Life 04:31
05. In My Arms 05:25
06. The Last Resort 06:06
07. Showdown 12:48
08. In the End 05:11
09. Spiriti Liberi 04:49
10. A New Dawn Ending 16:37
Sara Squadrani - Vocals, Vocals (choirs)
Claudio Pietronik - Guitars
Daniele Mazza - Keyboards, Vocals (choirs)
Martino Garattoni - Bass, Vocals (choirs)
Federico Gatti - Drums
Nicola Serafini - Photography
Matteo Ermeti - Photography
Daniele Mazza - Producer
Simone Mularoni - Producer, Engineering, Mixing, Mastering
Felipe Machado Franco - Artwork

+ Video - In My Arms.mp4

MediaInfo

ОбщееПолное имя : C:\Users\Администратор\Desktop\Илиян\ANCIENT BARDS - Discography 2010-2014 (EAC-FLAC)\ANCIENT BARDS 2014 - A New Dawn Ending (EAC-FLAC)\Video\Ancient Bards - In My Arms.mp4Формат : MPEG-4Профиль формата : Base Media / Version 2Идентификатор кодека : mp42Размер файла : 43,4 МбайтПродолжительность : 5 м. 39 с.Режим общего битрейта : ПеременныйОбщий поток : 1072 Кбит/секДата кодирования : UTC 2014-03-11 09:48:07Дата пометки : UTC 2014-03-11 09:48:07©TIM : 00:00:00:15©TSC : 25©TSZ : 1
ВидеоИдентификатор : 1Формат : AVCФормат/Информация : Advanced Video CodecПрофиль формата : High@L3.1Параметр CABAC формата : ДаПараметр ReFrames формата : 3 кадраИдентификатор кодека : avc1Идентификатор кодека/Информация : Advanced Video CodingПродолжительность : 5 м. 39 с.Битрейт : 797 Кбит/секШирина : 1280 пикселейВысота : 720 пикселейСоотношение сторон : 16:9Режим частоты кадров : ПостоянныйЧастота кадров : 25,000 кадров/секСтандарт вещания : PALЦветовое пространство : YUVСубдискретизация насыщенности : 4:2:0Битовая глубина : 8 битТип развёртки : ПрогрессивнаяБит/(Пиксели*Кадры) : 0.035Размер потока : 32,3 Мбайт (74%)Язык : EnglishДата кодирования : UTC 2014-03-11 09:48:07Дата пометки : UTC 2014-03-11 09:48:07Основные цвета : BT.709Характеристики трансфера : BT.709Коэффициенты матрицы : BT.709colour_range : Limited
АудиоИдентификатор : 2Формат : AACФормат/Информация : Advanced Audio CodecПрофиль формата : LCИдентификатор кодека : 40Продолжительность : 5 м. 39 с.Продолжительность оригинала : 5 м. 39 с.Вид битрейта : ПеременныйБитрейт : 253 Кбит/секМаксимальный битрейт : 375 Кбит/секКаналы : 2 каналаРасположение каналов : Front: L RЧастота : 48,0 КГцМетод сжатия : С потерямиРазмер потока : 10,3 Мбайт (24%)Размер потока оригинала : 10,3 Мбайт (24%)Язык : EnglishДата кодирования : UTC 2014-03-11 09:48:07Дата пометки : UTC 2014-03-11 09:48:07mdhd_Duration : 339925

Лог создания рипа

Exact Audio Copy V1.0 beta 3 from 29. August 2011
EAC extraction logfile from 17. February 2015, 17:03
Ancient Bards / A New Dawn Ending
Used drive : ATAPI iHAS122 W Adapter: 2 ID: 0
Read mode : SecureUtilize accurate stream : YesDefeat audio cache : YesMake use of C2 pointers : No
Read offset correction : 48Overread into Lead-In and Lead-Out : NoFill up missing offset samples with silence : YesDelete leading and trailing silent blocks : NoNull samples used in CRC calculations : YesUsed interface : Installed external ASPI interface
Used output format : User Defined EncoderSelected bitrate : 1024 kBit/sQuality : HighAdd ID3 tag : NoCommand line compressor : C:\Program Files\FLAC\flac.exeAdditional command line options : -V -8 -T "Date=%year%" -T "Genre=%genre%" -T"COMMENT=Ripped by Ilijan" -8 -V %source%
TOC of the extracted CD
Track | Start | Length | Start sector | End sector --------------------------------------------------------- 1 | 0:00.00 | 1:37.67 | 0 | 7341 2 | 1:37.67 | 7:55.14 | 7342 | 42980 3 | 9:33.06 | 6:51.15 | 42981 | 73820 4 | 16:24.21 | 4:30.71 | 73821 | 94141 5 | 20:55.17 | 5:25.39 | 94142 | 118555 6 | 26:20.56 | 6:06.50 | 118556 | 146055 7 | 32:27.31 | 12:48.63 | 146056 | 203718 8 | 45:16.19 | 5:11.26 | 203719 | 227069 9 | 50:27.45 | 4:48.70 | 227070 | 248739 10 | 55:16.40 | 16:37.46 | 248740 | 323560 11 | 74:26.11 | 4:59.54 | 334961 | 357439
Range status and errors
Selected range
Filename D:\ИЛИЯН\Ancient Bards - A New Dawn Ending.wav
Peak level 100.0 % Extraction speed 4.6 X Range quality 100.0 % Test CRC 0B0053F1 Copy CRC 0B0053F1 Copy OK
No errors occurred
AccurateRip summary
Track 1 accurately ripped (confidence 6) [FBC6CD3A] (AR v2)Track 2 accurately ripped (confidence 6) [025330DF] (AR v2)Track 3 accurately ripped (confidence 6) [185880DF] (AR v2)Track 4 accurately ripped (confidence 6) [442CFDDE] (AR v2)Track 5 accurately ripped (confidence 6) [262F19A5] (AR v2)Track 6 accurately ripped (confidence 6) [E42FA490] (AR v2)Track 7 accurately ripped (confidence 6) [E8DBFBE5] (AR v2)Track 8 accurately ripped (confidence 6) [7A972655] (AR v2)Track 9 accurately ripped (confidence 6) [1D703095] (AR v2)Track 10 accurately ripped (confidence 5) [7E4B3CB3] (AR v2)
All tracks accurately ripped
End of status report
---- CUETools DB Plugin V2.1.3
[CTDB TOCID: .a27Q9tNZOhnpTGc8UkQr2HEK8M-] found, Submit result: already submitted[52b1147d] (6/6) Accurately ripped
==== Log checksum 5962EDF266FC2E6FFC93C92492185A8A24D2EA2FA8310ACAC5C8B71E36E07338 ====
-- The Official Website - Encyclopaedia Metallum --
Other forum [Profile] [PM]

Dracula

Longevity: 6 years 1 month

Posts: 10710

Торрент-статистика

Post 26-Feb-2015 10:28 (after 4 hours)

Топик был перенесен из форума Metal в форум Metal


RUGUI
 
Similar theme
Forum Topic Author Torrent Replies Last Post
./templates/default/images/folder_dl.gif Metal (Symphonic Power Metal) Everfrost - Blue Eyed Emotion - 2015, MP3, 320 kbps Omen
0 | 1

0 | 1135

10

2015-12-29 15:00
Omen Latest
./templates/default/images/folder_dl.gif Metal (Symphonic, Progressive Power Metal) Serenity - Lionheart (Digipack, 2CD) - 2017 [FLAC, image +.cue, lossless] sergej644
1 | 0

0 | 1923

9

2018-01-27 18:45
sergej644 Latest
./templates/default/images/folder_dl.gif Metal (Symphonic Metal, Gothic Rock)VA - Symphonic & Opera Metal Vol. 1-5 - 2015-2019 [MP3, tracks, 320 kbps] sergej644
1 | 0

0 | 1054

0

2019-05-06 18:42
sergej644 Latest
Display posts from previous:    
Reply to topic

The time now is: Today 14:19

All times are GMT + 3 Hours



You cannot post new topics in this forum
You cannot reply to topics in this forum
You cannot edit your posts in this forum
You cannot delete your posts in this forum
You cannot vote in polls in this forum
You cannot attach files in this forum
You cannot download files in this forum