Today is a free download without charge Download

(Heavy/Power Metal) [CD] Nightmare - Коллекция: 2001-2014, FLAC (image+.cue), lossless

Reply to topic
 
Author
Message

Omen ®

Longevity: 7 years 1 month

Posts: 181090

Торрент-статистика

Post 26-Feb-2015 06:00

[Quote]


Nightmare - Коллекция

Жанр: Heavy/Power Metal Носитель: CD Год издания: 2001-2014
Страна исполнителя (группы): France Продолжительность: 06:58:47
Аудиокодек: FLAC (*.flac) Тип рипа: image+.cue Битрейт аудио: lossless
Источник (релизер): Да (Complete 600 DPI) Наличие сканов: Да (Complete 600 DPI)
Nightmare - Queen of Love & Pain (video) Nightmare - Final Procession (official video)
-

Об исполнителе (группе)

Свою историю французская метал-банда «Nightmare» ведет с аж 1979 года. Правда, музыкантам пришлось ждать более четырех лет, перед тем как в жизни группы начались кое-какие подвижки. Когда в марте 1983-го «Def leppard» в ходе своего турне «Pyromania» посетили Гренобль, «Nightmare» удалось попасть на разогрев к маститым британцам. На концерте присутствовало около 4000 зрителей, и это дало возможность команде засветиться перед рекорд-лейблами. После записи всего лишь одной демки группа получила контракт от английской фирмы «Ebony records». Уже в 1984 году на свет появился дебютник «Waiting for the twilight», вызвавший положительную реакцию прессы. Например «Enfer magazine» назвал «Nightmare» самым многообещающим французским актом.
К своему второму альбому «кошмарная» группа пришла в следующем составе: Жан-Мари Буэ (вокал), Жан Стрипполи (гитара), Николас Де Доминикис (гитара), Ив Сампьон (бас) и Джо Амор (ударные). Запись «Power of the universe» вновь проходила на севере Англии. Там же состоялись и первые концерты в поддержку альбома. Кстати, именно благодаря своей «живой» деятельности «Nightmare» получили благосклонность жителей Британских островов.
Далее события начали развиваться стремительно. Коллектив ушел с «Ebony» и перебазировался на французский «Dream records», где планировалось выпустить третий альбом. Однако этого не произошло, поскольку у лейбла начались финансовые трудности. Музыканты погрязли в контрактной неразберихе, а вдобавок ко всему вскоре Жан-Мари объявил о своем уходе. В 1987 году менеджмент настоял на принятии в группу англоязычного вокалиста и отрекомендовал на эту должность шотландца Тома Джексона. Сплочению коллектива это никоим образом не способствовало, и вскоре из старичков в нем остались только Ив и Николас.
«Nightmare» отыграли серию концертов во Франции и Англии, записали одну демку, но постоянные междоусобицы привели к распаду команды. Спустя двенадцать лет бывших участников «Кошмара» обуяла сильная ностальгия по прошлому, и в результате проект получил вторую жизнь. Состав банды теперь был таков: Джо Амор (вокал), Доминикис (гитара), Стрипполи (гитара), Сампьон (бас), Дэвид Амор (ударные) и Стефан Рабилло (клавишные).
По поводу реюниона 30 октября 1999-го в Гренобле состоялось грандиозное шоу, а следом были переизданы два первых альбома с большим количеством бонусов. Летом того же года музыканты записали EP «Astral deliverance», посвященный памяти Жана-Мари Буэ (он умер 19 апреля 1999 года). На пороге миллениума «Nightmare» стали первой французской металлической командой, удосужившейся выпустить двойной концертник. Альбом послужил хорошим трамплином для группы, начавшей вновь активно гастролировать. Сначала команда угодила на разогрев к «Saxon», а затем получила доступ на ряд фестивалей, включая знаменитый «Wacken open air».
К творчеству французов вновь начали проявлять интерес различные лейблы, и через некоторое время «Nightmare» получили контракт от «Napalm records». Наконец, в 2001 году вышла в свет третья, долгожданная студийная работа металлистов из Гренобля. В пылу раскрутки альбома команда добралась аж до берегов Америки, где неплохо выступила на «Metal Meltdown IV Festival». Ну а по возвращении в Европу музыкантов ожидали концерты в компании с «Blind guardian», очередные фестивали и… запись очередного альбома.
Links:
http://www.nightmare-metal.com/
[url=http://en.wikipedia.org/wiki/Nightmare_(French_band)]http://en.wikipedia.org/wiki/Nightmare_(French_band)[/url]
http://www.metal-archives.com/bands/Nightmare/2727
-

2001 - Cosmovision (Re-Released 2013) [AFM Records AFM 452-2] (01:13:34)


01. Roads to Nazca 00:59
02. Cosmovision 03:48
03. Corridors of Knowledge 03:46
04. Spirits of the Sunset 03:54
05. The Church 03:47
06. Behold the Nighttime 04:53
07. Necropolis 04:14
08. The Cemetary Road 04:53
09. Kill for the New Messiah 04:09
10. The Spiral of Madness 06:20
11. Last Flight to Sirius 05:22
12. Riddle in the Ocean 05:25
Re-released in 2013 by AFM Records and includes 6 bonus tracks:
13. War Addict 04:33
14. Astral Deliverance 00:46
15. The Legend 04:39
16. Heart of Fire 04:02
17. Princess of the Rising Sun 03:52
18. Howlers of Insanity 04:08
Jo Amore (Now or Never) - Vocals
Jeannot Stripolli - Guitars, Vocals
Nicolas De Dominicis - Guitars, Vocals
Yves Campion - Bass, Vocals
David Amore - Drums, Vocals
Iside Occella - Design
Jean-Pascal Fournier - Cover art
Hors Norm - Photography
Ulf Horbelt - Mastering
Terje Refsnes - Producer, Mixing

Лог создания рипа

Exact Audio Copy V1.0 beta 3 from 29. August 2011
EAC extraction logfile from 19. February 2015, 12:22
Nightmare / Cosmovision (Re-Released 2013)
Used drive : ATAPI iHAS122 W Adapter: 2 ID: 0
Read mode : SecureUtilize accurate stream : YesDefeat audio cache : YesMake use of C2 pointers : No
Read offset correction : 48Overread into Lead-In and Lead-Out : NoFill up missing offset samples with silence : YesDelete leading and trailing silent blocks : NoNull samples used in CRC calculations : YesUsed interface : Installed external ASPI interface
Used output format : User Defined EncoderSelected bitrate : 1024 kBit/sQuality : HighAdd ID3 tag : NoCommand line compressor : C:\Program Files\FLAC\flac.exeAdditional command line options : -V -8 -T "Date=%year%" -T "Genre=%genre%" -T"COMMENT=Ripped by Ilijan" -8 -V %source%
TOC of the extracted CD
Track | Start | Length | Start sector | End sector --------------------------------------------------------- 1 | 0:00.00 | 0:58.73 | 0 | 4422 2 | 0:58.73 | 3:47.20 | 4423 | 21467 3 | 4:46.18 | 3:46.26 | 21468 | 38443 4 | 8:32.44 | 3:53.55 | 38444 | 55973 5 | 12:26.24 | 3:47.36 | 55974 | 73034 6 | 16:13.60 | 4:53.12 | 73035 | 95021 7 | 21:06.72 | 4:14.06 | 95022 | 114077 8 | 25:21.03 | 4:53.26 | 114078 | 136078 9 | 30:14.29 | 4:09.36 | 136079 | 154789 10 | 34:23.65 | 6:19.56 | 154790 | 183270 11 | 40:43.46 | 5:21.55 | 183271 | 207400 12 | 46:05.26 | 5:24.52 | 207401 | 231752 13 | 51:30.03 | 4:33.06 | 231753 | 252233 14 | 56:03.09 | 0:46.01 | 252234 | 255684 15 | 56:49.10 | 4:38.57 | 255685 | 276591 16 | 61:27.67 | 4:01.49 | 276592 | 294715 17 | 65:29.41 | 3:56.47 | 294716 | 312462 18 | 69:26.13 | 4:07.61 | 312463 | 331048
Range status and errors
Selected range
Filename D:\ИЛИЯН\Nightmare - Cosmovision (Re-Released 2013).wav
Peak level 96.6 % Extraction speed 4.7 X Range quality 100.0 % Test CRC B54689DA Copy CRC B54689DA Copy OK
No errors occurred
AccurateRip summary
Track 1 accurately ripped (confidence 1) [F2B9575C] (AR v2)Track 2 accurately ripped (confidence 1) [3061B0D2] (AR v2)Track 3 accurately ripped (confidence 1) [2F4028A5] (AR v2)Track 4 accurately ripped (confidence 1) [11A67DE9] (AR v2)Track 5 accurately ripped (confidence 1) [200572F3] (AR v2)Track 6 accurately ripped (confidence 1) [359058FF] (AR v2)Track 7 accurately ripped (confidence 1) [3D85BCE4] (AR v2)Track 8 accurately ripped (confidence 1) [CF80A301] (AR v2)Track 9 accurately ripped (confidence 1) [4E174C18] (AR v2)Track 10 accurately ripped (confidence 1) [7F655B75] (AR v2)Track 11 accurately ripped (confidence 1) [1F164E16] (AR v2)Track 12 accurately ripped (confidence 1) [69C38630] (AR v2)Track 13 accurately ripped (confidence 1) [3F40C128] (AR v2)Track 14 accurately ripped (confidence 1) [806F8D52] (AR v2)Track 15 accurately ripped (confidence 1) [2FEED466] (AR v2)Track 16 accurately ripped (confidence 1) [72F9C8A2] (AR v2)Track 17 accurately ripped (confidence 1) [23002AD1] (AR v2)Track 18 accurately ripped (confidence 1) [9A13495C] (AR v2)
All tracks accurately ripped
End of status report
---- CUETools DB Plugin V2.1.3
[CTDB TOCID: VHECeMcIPrk5NrUjjzqmBG6fpmg-] found, Submit result: VHECeMcIPrk5NrUjjzqmBG6fpmg- has been confirmed[0f83dbfd] (1/1) Accurately ripped
==== Log checksum B0624CAA537548213D7345B71C4D639A80B37CA1FE70D96B88211D293B4348B0 ====

2005 - The Dominion Gate (Original Recording) [Regain Records RR 073] (01:05:40)


01. Temple of Tears 04:05
02. A Taste of Armageddon 04:12
03. Messenger of Faith 05:01
04. Secret Rules (Beati Paoli) 04:53
05. The Dressmaker 06:18
06. Endless Agony 04:31
07. Paranormal Magnitude (Part II) 02:14
08. Circle of the Dark 04:19
09. Haunting Memories 05:13
10. Heretic 05:40
11. The Dominion Gate 08:12
12. The Watchtower 05:24
13. K-141 05:31
Jo Amore (Now or Never) - Vocals
Franck Milleliri - Guitars
Alex Hilbert (Lonewolf, My Doppelgänger) - Guitars
Yves Campion - Bass
David Amore - Drums
Patrick Liotard - Mastering
Iside Occella - Artwork
Brigitte Charles - Photography
Damien Flammarion - Engineering (additional)
Terje Refsnes - Producer, Engineering, Mixing
Jean-Pascal Fournier - Cover art

Лог создания рипа

Exact Audio Copy V1.0 beta 3 from 29. August 2011
EAC extraction logfile from 18. February 2015, 20:10
Nightmare / The Dominion Gate
Used drive : ATAPI iHAS122 W Adapter: 2 ID: 0
Read mode : SecureUtilize accurate stream : YesDefeat audio cache : YesMake use of C2 pointers : No
Read offset correction : 48Overread into Lead-In and Lead-Out : NoFill up missing offset samples with silence : YesDelete leading and trailing silent blocks : NoNull samples used in CRC calculations : YesUsed interface : Installed external ASPI interface
Used output format : User Defined EncoderSelected bitrate : 1024 kBit/sQuality : HighAdd ID3 tag : NoCommand line compressor : C:\Program Files\FLAC\flac.exeAdditional command line options : -V -8 -T "Date=%year%" -T "Genre=%genre%" -T"COMMENT=Ripped by Ilijan" -8 -V %source%
TOC of the extracted CD
Track | Start | Length | Start sector | End sector --------------------------------------------------------- 1 | 0:00.00 | 4:05.04 | 0 | 18378 2 | 4:05.04 | 4:12.20 | 18379 | 37298 3 | 8:17.24 | 5:01.40 | 37299 | 59913 4 | 13:18.64 | 4:53.55 | 59914 | 81943 5 | 18:12.44 | 6:18.56 | 81944 | 110349 6 | 24:31.25 | 4:31.68 | 110350 | 130742 7 | 29:03.18 | 2:14.23 | 130743 | 140815 8 | 31:17.41 | 4:19.62 | 140816 | 160302 9 | 35:37.28 | 5:13.34 | 160303 | 183811 10 | 40:50.62 | 5:40.59 | 183812 | 209370 11 | 46:31.46 | 8:12.22 | 209371 | 246292 12 | 54:43.68 | 5:24.18 | 246293 | 270610 13 | 60:08.11 | 5:31.64 | 270611 | 295499
Range status and errors
Selected range
Filename D:\ИЛИЯН\Nightmare - The Dominion Gate.wav
Peak level 97.1 % Extraction speed 4.1 X Range quality 100.0 % Test CRC 1F672EF3 Copy CRC 1F672EF3 Copy OK
No errors occurred
AccurateRip summary
Track 1 accurately ripped (confidence 2) [C450095C] (AR v2)Track 2 accurately ripped (confidence 2) [9020D2F2] (AR v2)Track 3 accurately ripped (confidence 2) [90025D39] (AR v2)Track 4 accurately ripped (confidence 2) [9D36A43E] (AR v2)Track 5 accurately ripped (confidence 2) [F170FE54] (AR v2)Track 6 accurately ripped (confidence 2) [AD5DD0A5] (AR v2)Track 7 accurately ripped (confidence 2) [A370F56B] (AR v2)Track 8 accurately ripped (confidence 2) [0D2B7074] (AR v2)Track 9 accurately ripped (confidence 2) [87E73A3F] (AR v2)Track 10 accurately ripped (confidence 2) [6262FBE5] (AR v2)Track 11 accurately ripped (confidence 2) [A57E92B0] (AR v2)Track 12 accurately ripped (confidence 2) [138AB59E] (AR v2)Track 13 accurately ripped (confidence 2) [7EF85867] (AR v2)
All tracks accurately ripped
End of status report
---- CUETools DB Plugin V2.1.3
[CTDB TOCID: brpFglxzfiTZyE82xB88XF5GyT0-] found, Submit result: brpFglxzfiTZyE82xB88XF5GyT0- has been confirmed[d6f72a7b] (6/6) Accurately ripped
==== Log checksum DDC9E2BC67DC9F267A8F1D99E743B679DA57E416ED26FE91947630EDF279AD5A ====

2007 - Genetic Disorder (Original Recording) [Regain Records RR 129] (00:57:03)


01. Nothing Left Behind 05:15
02. Battleground for Suicide 04:16
03. Queen of Love & Pain 03:46
04. Conspiracy 04:09
05. Leader of the Masquerade 04:22
06. Final Procession 05:01
07. The Dominion Gate (Part II) 06:21
08. The Winds of Sin 04:28
09. Forsaken Child 04:33
10. A Thrill of Death 04:58
11. Wicked White Demon 03:41
12. Dawn of Darkness 06:08
Jo Amore (Now or Never) - Vocals
Alex Hilbert (Lonewolf, My Doppelgänger) - Guitars
Franck Milleliri - Guitars
Yves Campion - Bass, Vocals
David Amore - Drums
Henrik Udd - Producer, Mixing, Engineering
Fredrik Nordström - Producer, Mixing
Pär Olofsson - Artwork
Thierry Cormery - Photography
Patrick Liotard - Mastering

Лог создания рипа

Exact Audio Copy V1.0 beta 3 from 29. August 2011
EAC extraction logfile from 18. February 2015, 20:47
Nightmare / Genetic Disorder
Used drive : ATAPI iHAS122 W Adapter: 2 ID: 0
Read mode : SecureUtilize accurate stream : YesDefeat audio cache : YesMake use of C2 pointers : No
Read offset correction : 48Overread into Lead-In and Lead-Out : NoFill up missing offset samples with silence : YesDelete leading and trailing silent blocks : NoNull samples used in CRC calculations : YesUsed interface : Installed external ASPI interface
Used output format : User Defined EncoderSelected bitrate : 1024 kBit/sQuality : HighAdd ID3 tag : NoCommand line compressor : C:\Program Files\FLAC\flac.exeAdditional command line options : -V -8 -T "Date=%year%" -T "Genre=%genre%" -T"COMMENT=Ripped by Ilijan" -8 -V %source%
TOC of the extracted CD
Track | Start | Length | Start sector | End sector --------------------------------------------------------- 1 | 0:00.00 | 5:15.12 | 0 | 23636 2 | 5:15.12 | 4:16.30 | 23637 | 42866 3 | 9:31.42 | 3:46.36 | 42867 | 59852 4 | 13:18.03 | 4:09.43 | 59853 | 78570 5 | 17:27.46 | 4:22.20 | 78571 | 98240 6 | 21:49.66 | 5:01.56 | 98241 | 120871 7 | 26:51.47 | 6:21.23 | 120872 | 149469 8 | 33:12.70 | 4:28.05 | 149470 | 169574 9 | 37:41.00 | 4:33.19 | 169575 | 190068 10 | 42:14.19 | 4:58.26 | 190069 | 212444 11 | 47:12.45 | 3:41.49 | 212445 | 229068 12 | 50:54.19 | 6:08.65 | 229069 | 256733
Range status and errors
Selected range
Filename D:\ИЛИЯН\Nightmare - Genetic Disorder.wav
Peak level 94.5 % Extraction speed 4.2 X Range quality 100.0 % Test CRC 93C56B47 Copy CRC 93C56B47 Copy OK
No errors occurred
AccurateRip summary
Track 1 accurately ripped (confidence 3) [3C97FBF7] (AR v1)Track 2 accurately ripped (confidence 3) [C3E11FB8] (AR v1)Track 3 accurately ripped (confidence 3) [593588C7] (AR v1)Track 4 accurately ripped (confidence 3) [95F27396] (AR v1)Track 5 accurately ripped (confidence 3) [FA897FED] (AR v1)Track 6 accurately ripped (confidence 3) [D89CA966] (AR v1)Track 7 accurately ripped (confidence 3) [3CD95576] (AR v1)Track 8 accurately ripped (confidence 3) [1F0D9290] (AR v1)Track 9 accurately ripped (confidence 3) [50F9AA23] (AR v1)Track 10 accurately ripped (confidence 3) [F2A28CAC] (AR v1)Track 11 accurately ripped (confidence 3) [4C0BF903] (AR v1)Track 12 accurately ripped (confidence 3) [31C06F41] (AR v1)
All tracks accurately ripped
End of status report
---- CUETools DB Plugin V2.1.3
[CTDB TOCID: NtgqpKzNM8ztRPI7rDzJmCw_d.I-] found, Submit result: NtgqpKzNM8ztRPI7rDzJmCw_d.I- has been confirmed[23ce1767] (7/7) Accurately ripped
==== Log checksum A1A47DDEBE6BA64DA29042795DCDB436699AF4CE6A9A7F6FCA0717E5A6865EB8 ====

2009 - Insurrection (Original Recording) [AFM Records AFM 295-2] (00:54:20)


01. Eternal Winter 05:09
02. The Gospel of Judas 04:14
03. Insurrection 04:55
04. Legions of the Rising Sun 05:01
05. Three Miles Island 08:43
06. Mirrors of Damnation 05:25
07. Decameron 04:50
08. Target for Revenge 06:20
09. Cosa Nostra (Part I: The Light) 05:20
10. Angels of Glass 04:19
Jo Amore (Now or Never) - Vocals
Franck Milleliri - Guitars
J.C. Lefevre (J.C.Jess, Hiemperium) - Guitars
Yves Campion - Bass
David Amore - Drums
J.C. Lefevre - Engineering
Eric Bagnaro - Photography
Oliver Szczypula - Engineering
Pär Olofsson - Cover art
Patrick Liotard - Producer, Engineering, Mastering
Achim "Akeem" Köhler - Producer, Engineering, Mixing
Hiko - Artwork, Design

Лог создания рипа

Exact Audio Copy V1.0 beta 3 from 29. August 2011
EAC extraction logfile from 18. February 2015, 21:21
Nightmare / Insurrection
Used drive : ATAPI iHAS122 W Adapter: 2 ID: 0
Read mode : SecureUtilize accurate stream : YesDefeat audio cache : YesMake use of C2 pointers : No
Read offset correction : 48Overread into Lead-In and Lead-Out : NoFill up missing offset samples with silence : YesDelete leading and trailing silent blocks : NoNull samples used in CRC calculations : YesUsed interface : Installed external ASPI interface
Used output format : User Defined EncoderSelected bitrate : 1024 kBit/sQuality : HighAdd ID3 tag : NoCommand line compressor : C:\Program Files\FLAC\flac.exeAdditional command line options : -V -8 -T "Date=%year%" -T "Genre=%genre%" -T"COMMENT=Ripped by Ilijan" -8 -V %source%
TOC of the extracted CD
Track | Start | Length | Start sector | End sector --------------------------------------------------------- 1 | 0:00.00 | 5:09.03 | 0 | 23177 2 | 5:09.03 | 4:14.41 | 23178 | 42268 3 | 9:23.44 | 4:55.40 | 42269 | 64433 4 | 14:19.09 | 5:01.26 | 64434 | 87034 5 | 19:20.35 | 8:43.38 | 87035 | 126297 6 | 28:03.73 | 5:25.63 | 126298 | 150735 7 | 33:29.61 | 4:50.37 | 150736 | 172522 8 | 38:20.23 | 6:20.18 | 172523 | 201040 9 | 44:40.41 | 5:20.29 | 201041 | 225069 10 | 50:00.70 | 4:19.22 | 225070 | 244516
Range status and errors
Selected range
Filename D:\ИЛИЯН\Nightmare - Insurrection.wav
Peak level 98.8 % Extraction speed 3.8 X Range quality 99.9 % Test CRC DE833382 Copy CRC DE833382 Copy OK
No errors occurred
AccurateRip summary
Track 1 accurately ripped (confidence 4) [D9810E88] (AR v2)Track 2 accurately ripped (confidence 4) [0E783A62] (AR v2)Track 3 accurately ripped (confidence 4) [A4E6A083] (AR v2)Track 4 accurately ripped (confidence 4) [801768DB] (AR v2)Track 5 accurately ripped (confidence 4) [0F755D3D] (AR v2)Track 6 accurately ripped (confidence 4) [6A6D78D4] (AR v2)Track 7 accurately ripped (confidence 4) [24811639] (AR v2)Track 8 accurately ripped (confidence 4) [5F243159] (AR v2)Track 9 accurately ripped (confidence 4) [D5550E1D] (AR v2)Track 10 accurately ripped (confidence 4) [B9241939] (AR v2)
All tracks accurately ripped
End of status report
---- CUETools DB Plugin V2.1.3
[CTDB TOCID: bd5lRFlSG9_BF.Mxy2ExvIr4_lo-] found, Submit result: bd5lRFlSG9_BF.Mxy2ExvIr4_lo- has been confirmed[e535a2a3] (6/6) Accurately ripped
==== Log checksum E98E9D242B9974926012390614D04F875085C4FA3E6CF03036B203B88AB6BA52 ====

2011 - One Night Of Insurrection [live] (Original Recording) [AFM Records AFM 350-7] (01:05:53)


01. Intro 01:49
02. Eternal Winter 04:58
03. White Wicked Demon 03:45
04. Heretic 05:49
05. Legions of the Rising Sun 05:19
06. Secret Rules 04:58
07. Queen of Love and Pain 04:03
08. Three Miles Island 08:45
09. Cosmovision 04:00
10. The Wind of Sin 04:32
11. Target For Revenge 06:22
12. The Gospel of Judas 04:19
13. The Watchtower 07:11
Jo Amore (Now or Never) - Vocals
Franck Milleliri - Guitars
J.C. Lefevre (J.C.Jess, Hiemperium) - Guitars
Yves Campion - Bass
David Amore - Drums

Лог создания рипа

Exact Audio Copy V1.0 beta 3 from 29. August 2011
EAC extraction logfile from 18. February 2015, 22:33
Nightmare / One Night Of Insurrection
Used drive : ATAPI iHAS122 W Adapter: 2 ID: 0
Read mode : SecureUtilize accurate stream : YesDefeat audio cache : YesMake use of C2 pointers : No
Read offset correction : 48Overread into Lead-In and Lead-Out : NoFill up missing offset samples with silence : YesDelete leading and trailing silent blocks : NoNull samples used in CRC calculations : YesUsed interface : Installed external ASPI interface
Used output format : User Defined EncoderSelected bitrate : 1024 kBit/sQuality : HighAdd ID3 tag : NoCommand line compressor : C:\Program Files\FLAC\flac.exeAdditional command line options : -V -8 -T "Date=%year%" -T "Genre=%genre%" -T"COMMENT=Ripped by Ilijan" -8 -V %source%
TOC of the extracted CD
Track | Start | Length | Start sector | End sector --------------------------------------------------------- 1 | 0:00.00 | 1:49.37 | 0 | 8211 2 | 1:49.37 | 4:58.37 | 8212 | 30598 3 | 6:47.74 | 3:45.00 | 30599 | 47473 4 | 10:32.74 | 5:49.37 | 47474 | 73685 5 | 16:22.36 | 5:19.37 | 73686 | 97647 6 | 21:41.73 | 4:58.00 | 97648 | 119997 7 | 26:39.73 | 4:03.00 | 119998 | 138222 8 | 30:42.73 | 8:45.00 | 138223 | 177597 9 | 39:27.73 | 4:00.00 | 177598 | 195597 10 | 43:27.73 | 4:32.00 | 195598 | 215997 11 | 47:59.73 | 6:22.37 | 215998 | 244684 12 | 54:22.35 | 4:19.37 | 244685 | 264146 13 | 58:41.72 | 7:11.00 | 264147 | 296471
Range status and errors
Selected range
Filename D:\ИЛИЯН\Nightmare - One Night Of Insurrection.wav
Peak level 100.0 % Extraction speed 4.3 X Range quality 100.0 % Test CRC 97A0D43A Copy CRC 97A0D43A Copy OK
No errors occurred
AccurateRip summary
Track 1 accurately ripped (confidence 2) [8C13E692] (AR v2)Track 2 accurately ripped (confidence 2) [15975DE4] (AR v2)Track 3 accurately ripped (confidence 2) [14FD3FE5] (AR v2)Track 4 accurately ripped (confidence 2) [0E27DE5C] (AR v2)Track 5 accurately ripped (confidence 2) [24906D23] (AR v2)Track 6 accurately ripped (confidence 2) [48077DC4] (AR v2)Track 7 accurately ripped (confidence 2) [F08EE821] (AR v2)Track 8 accurately ripped (confidence 2) [43602671] (AR v2)Track 9 accurately ripped (confidence 2) [1A765254] (AR v2)Track 10 accurately ripped (confidence 2) [C0EDC1DF] (AR v2)Track 11 accurately ripped (confidence 2) [0D6708B7] (AR v2)Track 12 accurately ripped (confidence 2) [8614801A] (AR v2)Track 13 accurately ripped (confidence 2) [97379E8E] (AR v2)
All tracks accurately ripped
End of status report
---- CUETools DB Plugin V2.1.3
[CTDB TOCID: ZJHqJe2QGEreahT0MdvtCarr7KQ-] disk not present in database, Submit result: ZJHqJe2QGEreahT0MdvtCarr7KQ- has been uploaded
==== Log checksum 9D1A06720343A7D1F710AD7A8E4C9A41E6155938E8DD0B7C6EE027B7CB3D5E67 ====

2012 - The Burden Of God (Original Recording) [AFM Records AFM 391-2] (00:52:51)


01. Gateways to the Void 02:26
02. Sunrise in Hell 05:04
03. The Burden of God 04:02
04. Crimson Empire 05:04
05. Children of the Nation 04:40
06. The Preacher 05:43
07. Shattered Hearts 05:45
08. The Doomsday Prediction 04:20
09. The Dominion Gate (Part III) 07:32
10. Final Outcome 04:23
11. Afterlife 03:50
Jo Amore (Now or Never) - Vocals
Franck Milleliri - Guitars
Matt Asselberghs (Architekt, Fire Wizzard) - Guitars
Yves Campion - Bass
David Amore - Drums
Jonathan - Orchestral arrangements, Choir arrangements
Mori Gena - Photography
Will Hien - Photography
Kostic Dusan - Cover art
Iside Occella - Cover concept, Artwork
Maor Appelbaum - Mastering
Patrick Liotard - Producer, Engineering, Mixing

Лог создания рипа

Exact Audio Copy V1.0 beta 3 from 29. August 2011
EAC extraction logfile from 18. February 2015, 21:52
Nightmare / The Burden Of God
Used drive : ATAPI iHAS122 W Adapter: 2 ID: 0
Read mode : SecureUtilize accurate stream : YesDefeat audio cache : YesMake use of C2 pointers : No
Read offset correction : 48Overread into Lead-In and Lead-Out : NoFill up missing offset samples with silence : YesDelete leading and trailing silent blocks : NoNull samples used in CRC calculations : YesUsed interface : Installed external ASPI interface
Used output format : User Defined EncoderSelected bitrate : 1024 kBit/sQuality : HighAdd ID3 tag : NoCommand line compressor : C:\Program Files\FLAC\flac.exeAdditional command line options : -V -8 -T "Date=%year%" -T "Genre=%genre%" -T"COMMENT=Ripped by Ilijan" -8 -V %source%
TOC of the extracted CD
Track | Start | Length | Start sector | End sector --------------------------------------------------------- 1 | 0:00.00 | 2:25.54 | 0 | 10928 2 | 2:25.54 | 5:03.61 | 10929 | 33714 3 | 7:29.40 | 4:02.35 | 33715 | 51899 4 | 11:32.00 | 5:06.14 | 51900 | 74863 5 | 16:38.14 | 4:39.61 | 74864 | 95849 6 | 21:18.00 | 5:42.45 | 95850 | 121544 7 | 27:00.45 | 5:45.02 | 121545 | 147421 8 | 32:45.47 | 4:20.05 | 147422 | 166926 9 | 37:05.52 | 7:31.71 | 166927 | 200822 10 | 44:37.48 | 4:23.00 | 200823 | 220547 11 | 49:00.48 | 3:50.09 | 220548 | 237806
Range status and errors
Selected range
Filename D:\ИЛИЯН\Nightmare - The Burden Of God.wav
Peak level 100.0 % Extraction speed 3.9 X Range quality 100.0 % Test CRC 28EC6732 Copy CRC 28EC6732 Copy OK
No errors occurred
AccurateRip summary
Track 1 accurately ripped (confidence 5) [C75D9F40] (AR v2)Track 2 accurately ripped (confidence 5) [F98F16D0] (AR v2)Track 3 accurately ripped (confidence 5) [96A2E532] (AR v2)Track 4 accurately ripped (confidence 5) [6C9EF5E6] (AR v2)Track 5 accurately ripped (confidence 5) [13126C15] (AR v2)Track 6 accurately ripped (confidence 5) [33DD0E84] (AR v2)Track 7 accurately ripped (confidence 5) [6064A2CE] (AR v2)Track 8 accurately ripped (confidence 5) [232A0AF4] (AR v2)Track 9 accurately ripped (confidence 5) [D15298B1] (AR v2)Track 10 accurately ripped (confidence 5) [75B74FB3] (AR v2)Track 11 accurately ripped (confidence 5) [6E868D37] (AR v2)
All tracks accurately ripped
End of status report
---- CUETools DB Plugin V2.1.3
[CTDB TOCID: 6t5stZTkKhAimTp_xvX8sGjhmjw-] found, Submit result: 6t5stZTkKhAimTp_xvX8sGjhmjw- has been confirmed[ec024677] (4/4) Accurately ripped
==== Log checksum BE5F7B118671C9516D43011A56421B62236BC0BA002D63582B8E5E84D74965CA ====

2014 - The Aftermath (Original Recording) [AFM Records AFM 493-2] (00:49:36)


01. The Aftermath (Intro) 00:56
02. Bringers of a No Man's Land 04:30
03. Forbidden Tribe 04:26
04. Necromancer 04:54
05. Invoking Demons 05:07
06. I Am Immortal 04:56
07. Digital DNA 04:39
08. Ghost in the Mirror 05:20
09. The Bridge Is Burning 05:41
10. Mission for God 04:42
11. Alone in the Distance 04:27
Jo Amore (Now or Never) - Vocals
Franck Milleliri - Guitars
Matt Asselberghs (Architekt, Fire Wizzard) - Guitars
Yves Campion - Bass
David Amore - Drums
Anthony Mouchet - Cover art, Artwork, Photography
Patrick Liotard - Recording (vocals)
Jan Vacik - Producer, Recording, Mixing, Mastering
Mario Lochert - Producer, Recording, Mixing, Mastering

Лог создания рипа

Exact Audio Copy V1.0 beta 3 from 29. August 2011
EAC extraction logfile from 19. February 2015, 12:53
Nightmare / The Aftermath
Used drive : ATAPI iHAS122 W Adapter: 2 ID: 0
Read mode : SecureUtilize accurate stream : YesDefeat audio cache : YesMake use of C2 pointers : No
Read offset correction : 48Overread into Lead-In and Lead-Out : NoFill up missing offset samples with silence : YesDelete leading and trailing silent blocks : NoNull samples used in CRC calculations : YesUsed interface : Installed external ASPI interface
Used output format : User Defined EncoderSelected bitrate : 1024 kBit/sQuality : HighAdd ID3 tag : NoCommand line compressor : C:\Program Files\FLAC\flac.exeAdditional command line options : -V -8 -T "Date=%year%" -T "Genre=%genre%" -T"COMMENT=Ripped by Ilijan" -8 -V %source%
TOC of the extracted CD
Track | Start | Length | Start sector | End sector --------------------------------------------------------- 1 | 0:00.00 | 0:55.48 | 0 | 4172 2 | 0:55.48 | 4:30.13 | 4173 | 24435 3 | 5:25.61 | 4:26.00 | 24436 | 44385 4 | 9:51.61 | 4:54.03 | 44386 | 66438 5 | 14:45.64 | 5:06.50 | 66439 | 89438 6 | 19:52.39 | 4:55.45 | 89439 | 111608 7 | 24:48.09 | 4:38.60 | 111609 | 132518 8 | 29:26.69 | 5:19.57 | 132519 | 156500 9 | 34:46.51 | 5:40.39 | 156501 | 182039 10 | 40:27.15 | 4:42.07 | 182040 | 203196 11 | 45:09.22 | 4:27.07 | 203197 | 223228
Range status and errors
Selected range
Filename D:\ИЛИЯН\Nightmare - The Aftermath.wav
Peak level 99.9 % Extraction speed 3.7 X Range quality 99.9 % Test CRC 061F5517 Copy CRC 061F5517 Copy OK
No errors occurred
AccurateRip summary
Track 1 accurately ripped (confidence 3) [EDB77F3A] (AR v2)Track 2 accurately ripped (confidence 3) [3AFB13D4] (AR v2)Track 3 accurately ripped (confidence 3) [31D02E7D] (AR v2)Track 4 accurately ripped (confidence 3) [E1E00CA3] (AR v2)Track 5 accurately ripped (confidence 3) [D24793F1] (AR v2)Track 6 accurately ripped (confidence 3) [7FFBF90D] (AR v2)Track 7 accurately ripped (confidence 3) [7816CB4E] (AR v2)Track 8 accurately ripped (confidence 3) [9017CB6E] (AR v2)Track 9 accurately ripped (confidence 3) [27192843] (AR v2)Track 10 accurately ripped (confidence 3) [8E428477] (AR v2)Track 11 accurately ripped (confidence 3) [8F31F3D5] (AR v2)
All tracks accurately ripped
End of status report
---- CUETools DB Plugin V2.1.3
[CTDB TOCID: xHHRmcnNqY6HbbMLicofn4sUTMU-] found, Submit result: already submitted[f05f7de0] (7/7) Accurately ripped
==== Log checksum 3A91C624A95BB5FCA2360489963162E52C6F3412344076EAA90E3AE08D7C5927 ====
-
Other forum [Profile] [PM]

Dracula

Longevity: 6 years 1 month

Posts: 11044

Торрент-статистика

Post 26-Feb-2015 10:27 (after 4 hours)

Топик был перенесен из форума Metal в форум Metal


RUGUI
 
Display posts from previous:    
Reply to topic

The time now is: Today 02:47

All times are GMT + 3 Hours



You cannot post new topics in this forum
You cannot reply to topics in this forum
You cannot edit your posts in this forum
You cannot delete your posts in this forum
You cannot vote in polls in this forum
You cannot attach files in this forum
You cannot download files in this forum