Today is a free download without charge Download

(Hard Rock) AC/DC - Discography (154 CD) - 1974 - 2011, FLAC (image+.cue), lossless

Reply to topic
 
Author
Message

Omen ®

Longevity: 8 years 7 months

Posts: 181087

Торрент-статистика

Post 04-Feb-2015 09:29

[Quote]


Discography
Жанр: Hard Rock
Страна: Australia
Год издания: 1974 - 2014
Страна-производитель дисков: Australia USA Canada Germany Japan
Аудио кодек: FLAC (*.flac)
Тип рипа: image+.cue
Битрейт аудио: lossless
Наличие сканов в содержимом раздачи: да
Источник (релизеры): Baum,bki71, alonzo, unclesandy
-Доп. информация: Все рипы с фирменных дисков из личных коллекций.
Отдельная благодарность Necromanduss за сборку сканов,
за техническую поддержку Ready.zp-Albums

1974 - High Voltage (Australian Release)

1987 Japan for Australia, Albert/EMI CDP 746667 2

Треклист:
01. Baby, Please Don't Go (4:52)
02. She's Got Balls (4:49)
03. Little Lover (5:41)
04. Stick Around (4:40)
05. Soul Stripper (6:29)
06. You Ain't Got A Hold On Me (3:32)
07. Love Song (5:21)
08. Show Business (4:46)
Продолжительность: 40:10

Лог создания рипа

Exact Audio Copy V1.0 beta 3 from 29. August 2011
EAC extraction logfile from 23. January 2015, 10:37
AC-DC / High Voltage (Albert CDP 746667 2)
Used drive : PIONEER DVD-RW DVR-215 Adapter: 0 ID: 0
Read mode : SecureUtilize accurate stream : YesDefeat audio cache : YesMake use of C2 pointers : No
Read offset correction : 48Overread into Lead-In and Lead-Out : NoFill up missing offset samples with silence : YesDelete leading and trailing silent blocks : NoNull samples used in CRC calculations : YesUsed interface : Native Win32 interface for Win NT & 2000
Used output format : User Defined EncoderSelected bitrate : 1024 kBit/sQuality : HighAdd ID3 tag : NoCommand line compressor : C:\Program Files (x86)\Exact Audio Copy\Flac\flac.exeAdditional command line options : -V -8 -T "Date=%year%" -T "Genre=%genre%" %source%
TOC of the extracted CD
Track | Start | Length | Start sector | End sector --------------------------------------------------------- 1 | 0:00.00 | 4:51.40 | 0 | 21864 2 | 4:51.40 | 4:49.32 | 21865 | 43571 3 | 9:40.72 | 5:41.10 | 43572 | 69156 4 | 15:22.07 | 4:39.65 | 69157 | 90146 5 | 20:01.72 | 6:29.30 | 90147 | 119351 6 | 26:31.27 | 3:31.70 | 119352 | 135246 7 | 30:03.22 | 5:21.03 | 135247 | 159324 8 | 35:24.25 | 4:45.50 | 159325 | 180749
Range status and errors
Selected range
Filename F:\bki71\AC-DC\AC-DC - High Voltage (Albert CDP 746667 2).wav
Peak level 97.7 % Extraction speed 7.2 X Range quality 99.9 % Test CRC B77F24A7 Copy CRC B77F24A7 Copy OK
No errors occurred
AccurateRip summary
Track 1 accurately ripped (confidence 2) [177D458B] (AR v2)Track 2 accurately ripped (confidence 2) [B067E9C5] (AR v2)Track 3 accurately ripped (confidence 2) [4231A36F] (AR v2)Track 4 accurately ripped (confidence 2) [44913E5A] (AR v2)Track 5 accurately ripped (confidence 2) [8487010B] (AR v2)Track 6 accurately ripped (confidence 2) [CB132014] (AR v2)Track 7 accurately ripped (confidence 2) [CDCC775F] (AR v2)Track 8 accurately ripped (confidence 2) [63E5CF27] (AR v2)
All tracks accurately ripped
End of status report
==== Log checksum 50690A69153B0B4B21A8BF54629CA878CD2CA0DA1E906DA39A69C6EC0832A580 ====

1989 Australia Albert/CBS 465250 2

Треклист:
01. Baby Please Don't Go (4:53)
02. She's Got Balls (4:53)
03. Little Lover (5:47)
04. Stick Around (4:45)
05. Soul Stripper (6:31)
06. You Ain't Got A Hold On Me (3:36)
07. Love Song (5:27)
08. Show Business (4:47)
Продолжительность: 40:40

Лог создания рипа

Exact Audio Copy V0.99 prebeta 4 from 23. January 2008
EAC extraction logfile from 19. May 2011, 20:07
AC-DC / High Voltage (Albert 465250 2)
Used drive : PLEXTOR DVDR PX-760A Adapter: 0 ID: 0
Read mode : SecureUtilize accurate stream : YesDefeat audio cache : YesMake use of C2 pointers : No
Read offset correction : 30Overread into Lead-In and Lead-Out : NoFill up missing offset samples with silence : YesDelete leading and trailing silent blocks : NoNull samples used in CRC calculations : YesUsed interface : Installed external ASPI interface
Used output format : Internal WAV RoutinesSample format : 44.100 Hz; 16 Bit; Stereo
TOC of the extracted CD
Track | Start | Length | Start sector | End sector --------------------------------------------------------- 1 | 0:00.00 | 4:53.35 | 0 | 22009 2 | 4:53.35 | 4:53.05 | 22010 | 43989 3 | 9:46.40 | 5:47.25 | 43990 | 70039 4 | 15:33.65 | 4:44.47 | 70040 | 91386 5 | 20:18.37 | 6:31.08 | 91387 | 120719 6 | 26:49.45 | 3:36.20 | 120720 | 136939 7 | 30:25.65 | 5:26.67 | 136940 | 161456 8 | 35:52.57 | 4:47.18 | 161457 | 182999
Range status and errors
Selected range
Filename D:\bki71\AC-DC - High Voltage (Albert 465250 2).wav
Peak level 100.0 % Range quality 99.9 % Test CRC CE105793 Copy CRC CE105793 Copy OK
No errors occurred
AccurateRip summary
Track 1 accurately ripped (confidence 18) [A20B85BA]Track 2 accurately ripped (confidence 19) [DD78E9BA]Track 3 accurately ripped (confidence 19) [02911CBD]Track 4 accurately ripped (confidence 19) [89068C43]Track 5 accurately ripped (confidence 19) [F8D0DA4D]Track 6 accurately ripped (confidence 19) [576F963E]Track 7 accurately ripped (confidence 20) [EADE335A]Track 8 accurately ripped (confidence 18) [A8B717E7]
All tracks accurately ripped
End of status report

1995 Australia Remaster, Albert/EMI 4770822

Треклист:
01. Baby, Please Don't Go (4:51)
02. She's Got Balls (4:48)
03. Little Lover (5:39)
04. Stick Around (4:39)
05. Soul Stripper (6:25)
06. You Ain't Got A Hold On Me (3:33)
07. Love Song (5:18)
08. Show Business (4:46)
Продолжительность: 40:00

Лог создания рипа

Exact Audio Copy V0.99 prebeta 5 from 4. May 2009
EAC Auslese-Logdatei vom 12. Juni 2010, 22:36
AC - DC / High Voltage (Austrailian Version)
Benutztes Laufwerk : HL-DT-STDVD-ROM GDR-H30N Adapter: 0 ID: 1
Lesemodus : SicherBenutze Accurate Stream : JaAudio Puffer abgeschaltet : JaBenutze C2 Fehlerinformationen : Nein
Leseoffset Korrektur : 6Ьberlesen in das Lead-In und Lead-Out : NeinFьlle fehlende Offsetsample mit Stille auf : JaLцsche fьhrende und nachfolgende stille Blцcke : NeinNull Samples gehen in CRC Berechnungen ein : JaBenutzte Schnittstelle : Installierte externe ASPI Schnittstelle
Benutztes Ausgabeformat : Interne WAV RoutinenSampleformat : 44.100 Hz; 16 Bit; Stereo
TOC der ausgelesenen CD
Track | Start | Lдnge | Startsektor | Endsektor ------------------------------------------------------- 1 | 0:00.00 | 4:50.60 | 0 | 21809 2 | 4:50.60 | 4:48.20 | 21810 | 43429 3 | 9:39.05 | 5:38.65 | 43430 | 68844 4 | 15:17.70 | 4:39.27 | 68845 | 89796 5 | 19:57.22 | 6:25.13 | 89797 | 118684 6 | 26:22.35 | 3:33.12 | 118685 | 134671 7 | 29:55.47 | 5:17.63 | 134672 | 158509 8 | 35:13.35 | 4:46.25 | 158510 | 179984
Bereichsstatus und Fehler
Gewдhlter Bereich
Dateiname K:\Audi\ACDC\1995 Australian Edition\1974 - High Voltage\AC - DC - High Voltage (Austrailian Version).wav
Spitzenpegel 100.0 % Bereichsqualitдt 99.9 % Kopie CRC 1EDC3339 Kopie OK
Keine Fehler aufgetreten
AccurateRip Ьbersicht
Track 1 akkurat gelesen (Zuversicht 9) [BF4F28A3]Track 2 akkurat gelesen (Zuversicht 9) [4F755955]Track 3 akkurat gelesen (Zuversicht 9) [4C9FE477]Track 4 akkurat gelesen (Zuversicht 9) [63470A49]Track 5 akkurat gelesen (Zuversicht 9) [236226C1]Track 6 akkurat gelesen (Zuversicht 9) [8F5A8625]Track 7 akkurat gelesen (Zuversicht 9) [1BAEFE29]Track 8 akkurat gelesen (Zuversicht 8) [5B1565E5]
Alle Tracks wurden akkurat gelesen
Ende des Statusreports

1975 - T.N.T. (Australian Release)

1986 Japan for Australia, Albert/EMI CDP 746272 2

Треклист:
01. It's A Long Way To The Top (If You Wanna Rock 'N' Roll) (5:12)
02. The Jack (5:51)
03. T.N.T. (3:34)
04. Live Wire (5:48)
05. High Voltage (4:24)
06. Rocker (2:55)
07. Can I Sit Next To You Girl (4:11)
08. Rock 'N' Roll Singer (5:05)
09. School Days (5:18)
Продолжительность: 42:16

Лог создания рипа

Exact Audio Copy V0.99 prebeta 4 from 23. January 2008
EAC extraction logfile from 8. December 2010, 12:35
AC-DC / T.N.T. (Albert CDP 746272 2)
Used drive : PLEXTOR DVDR PX-760A Adapter: 0 ID: 0
Read mode : SecureUtilize accurate stream : YesDefeat audio cache : YesMake use of C2 pointers : No
Read offset correction : 30Overread into Lead-In and Lead-Out : NoFill up missing offset samples with silence : YesDelete leading and trailing silent blocks : NoNull samples used in CRC calculations : YesUsed interface : Installed external ASPI interface
Used output format : Internal WAV RoutinesSample format : 44.100 Hz; 16 Bit; Stereo
TOC of the extracted CD
Track | Start | Length | Start sector | End sector --------------------------------------------------------- 1 | 0:00.00 | 5:12.12 | 0 | 23411 2 | 5:12.12 | 5:50.45 | 23412 | 49706 3 | 11:02.57 | 3:34.25 | 49707 | 65781 4 | 14:37.07 | 5:47.38 | 65782 | 91844 5 | 20:24.45 | 4:23.42 | 91845 | 111611 6 | 24:48.12 | 2:55.05 | 111612 | 124741 7 | 27:43.17 | 4:10.50 | 124742 | 143541 8 | 31:53.67 | 5:04.38 | 143542 | 166379 9 | 36:58.30 | 5:18.02 | 166380 | 190231
Range status and errors
Selected range
Filename D:\bki71\AC-DC - T.N.T. (Albert CDP 746272 2).wav
Peak level 88.4 % Range quality 100.0 % Test CRC 23E22E42 Copy CRC 23E22E42 Copy OK
No errors occurred
AccurateRip summary
Track 1 accurately ripped (confidence 1) [F8AA521A]Track 2 accurately ripped (confidence 1) [164DD3FB]Track 3 accurately ripped (confidence 1) [1D7924FB]Track 4 accurately ripped (confidence 1) [312B5D38]Track 5 accurately ripped (confidence 1) [DE9FBD30]Track 6 accurately ripped (confidence 1) [F5013C3B]Track 7 accurately ripped (confidence 1) [E0A8D9D1]Track 8 accurately ripped (confidence 1) [7CD06679]Track 9 accurately ripped (confidence 1) [040C08F6]
All tracks accurately ripped
End of status report

1989 Australia Albert/CBS 465262 2

Треклист:
01. It's A Long Way To The Top (If You Wanna Rock 'N' Roll) (5:17)
02. Rock 'N' Roll Singer (5:06)
03. The Jack (5:53)
04. Live Wire (5:51)
05. T.N.T. (3:36)
06. Rocker (2:52)
07. Can I Sit Next To You Girl (4:12)
08. High Voltage (4:20)
09. School Days (5:24)
Продолжительность: 42:30

Лог создания рипа

Exact Audio Copy V1.0 beta 3 from 29. August 2011
EAC extraction logfile from 23. January 2015, 11:58
AC-DC / T.N.T. (Albert 465262 2)
Used drive : PLEXTOR DVDR PX-760A Adapter: 1 ID: 0
Read mode : SecureUtilize accurate stream : YesDefeat audio cache : YesMake use of C2 pointers : No
Read offset correction : 30Overread into Lead-In and Lead-Out : NoFill up missing offset samples with silence : YesDelete leading and trailing silent blocks : NoNull samples used in CRC calculations : YesUsed interface : Native Win32 interface for Win NT & 2000
Used output format : User Defined EncoderSelected bitrate : 1024 kBit/sQuality : HighAdd ID3 tag : NoCommand line compressor : C:\Program Files (x86)\Exact Audio Copy\Flac\flac.exeAdditional command line options : -V -8 -T "Date=%year%" -T "Genre=%genre%" %source%
TOC of the extracted CD
Track | Start | Length | Start sector | End sector --------------------------------------------------------- 1 | 0:00.00 | 5:16.62 | 0 | 23761 2 | 5:16.62 | 5:05.63 | 23762 | 46699 3 | 10:22.50 | 5:52.40 | 46700 | 73139 4 | 16:15.15 | 5:51.17 | 73140 | 99481 5 | 22:06.32 | 3:36.18 | 99482 | 115699 6 | 25:42.50 | 2:51.57 | 115700 | 128581 7 | 28:34.32 | 4:12.23 | 128582 | 147504 8 | 32:46.55 | 4:19.60 | 147505 | 166989 9 | 37:06.40 | 5:23.40 | 166990 | 191254
Range status and errors
Selected range
Filename F:\bki71\AC-DC\AC-DC - T.N.T. (Albert 465262 2).wav
Peak level 95.5 % Extraction speed 2.5 X Range quality 100.0 % Test CRC F09E03DC Copy CRC F09E03DC Copy OK
No errors occurred
AccurateRip summary
Track 1 accurately ripped (confidence 2) [CF6FF07B] (AR v2)Track 2 accurately ripped (confidence 2) [21FEFDA0] (AR v2)Track 3 accurately ripped (confidence 2) [E316AFBC] (AR v2)Track 4 accurately ripped (confidence 2) [918AA068] (AR v2)Track 5 accurately ripped (confidence 2) [722017DB] (AR v2)Track 6 accurately ripped (confidence 2) [DC7E213C] (AR v2)Track 7 accurately ripped (confidence 2) [E85D9A09] (AR v2)Track 8 accurately ripped (confidence 2) [AF160CDD] (AR v2)Track 9 accurately ripped (confidence 2) [BFF6D0C2] (AR v2)
All tracks accurately ripped
End of status report
==== Log checksum 7144178AC8D45FE0B6F922FD24EF60E935B1AAF2A9BE67D95632EFDE1FF29649 ====

1995 Australia Remaster, Albert/EMI 4770832

Треклист:
01. It's A Long Way To The Top (If You Wanna Rock 'n' Roll) (5:16)
02. Rock 'N' Roll Singer (5:04)
03. The Jack (5:52)
04. Live Wire (5:50)
05. T.N.T. (3:35)
06. Rocker (2:50)
07. Can I Sit Next To You Girl (4:12)
08. High Voltage (4:02)
09. School Days (5:23)
Продолжительность: 42:03

Лог создания рипа

Exact Audio Copy V0.99 prebeta 5 from 4. May 2009
EAC Auslese-Logdatei vom 11. Juni 2010, 18:16
ACDC / T.N.T. (australian remaster)
Benutztes Laufwerk : HL-DT-STDVD-ROM GDR-H30N Adapter: 0 ID: 1
Lesemodus : SicherBenutze Accurate Stream : JaAudio Puffer abgeschaltet : JaBenutze C2 Fehlerinformationen : Nein
Leseoffset Korrektur : 6Ьberlesen in das Lead-In und Lead-Out : NeinFьlle fehlende Offsetsample mit Stille auf : JaLцsche fьhrende und nachfolgende stille Blцcke : NeinNull Samples gehen in CRC Berechnungen ein : JaBenutzte Schnittstelle : Installierte externe ASPI Schnittstelle
Benutztes Ausgabeformat : Interne WAV RoutinenSampleformat : 44.100 Hz; 16 Bit; Stereo
TOC der ausgelesenen CD
Track | Start | Lдnge | Startsektor | Endsektor ------------------------------------------------------- 1 | 0:00.00 | 5:15.50 | 0 | 23674 2 | 5:15.50 | 5:04.00 | 23675 | 46474 3 | 10:19.50 | 5:51.62 | 46475 | 72861 4 | 16:11.37 | 5:50.00 | 72862 | 99111 5 | 22:01.37 | 3:34.38 | 99112 | 115199 6 | 25:36.00 | 2:49.50 | 115200 | 127924 7 | 28:25.50 | 4:11.62 | 127925 | 146811 8 | 32:37.37 | 4:02.25 | 146812 | 164986 9 | 36:39.62 | 5:23.13 | 164987 | 189224
Bereichsstatus und Fehler
Gewдhlter Bereich
Dateiname K:\Audi\ACDC\1995 Australian Edition\1975 - T.N.T\ACDC - T.N.T. (australian remaster).wav
Spitzenpegel 100.0 % Bereichsqualitдt 100.0 % Kopie CRC 2BD6BA8A Kopie OK
Keine Fehler aufgetreten
AccurateRip Ьbersicht
Track 1 akkurat gelesen (Zuversicht 11) [905E1ABB]Track 2 akkurat gelesen (Zuversicht 11) [6AED2DA6]Track 3 akkurat gelesen (Zuversicht 10) [BAA30969]Track 4 akkurat gelesen (Zuversicht 11) [3B0721AB]Track 5 akkurat gelesen (Zuversicht 11) [97B7A667]Track 6 akkurat gelesen (Zuversicht 11) [A5B807AD]Track 7 akkurat gelesen (Zuversicht 11) [DC7AEE75]Track 8 akkurat gelesen (Zuversicht 11) [F84F1783]Track 9 akkurat gelesen (Zuversicht 10) [36245B4A]
Alle Tracks wurden akkurat gelesen
Ende des Statusreports

1976 - Dirty Deeds Done Dirt Cheap (Australian Release)

1986 Japan for Australia, Albert/EMI CDP 746273 2

Треклист:
01. Dirty Deeds Done Dirt Cheap (4:13)
02. Ain't No Fun (7:29)
03. There's Gonna Be Some Rockin' (3:18)
04. Problem Child (5:27)
05. Squealer (5:11)
06. Big Balls (2:39)
07. R.I.P. (Rock In Peace) (3:34)
08. Ride On (5:51)
09. Jailbreak (4:41)
Продолжительность: 42:22

Лог создания рипа

Exact Audio Copy V0.99 prebeta 4 from 23. January 2008
EAC extraction logfile from 19. May 2011, 20:30
AC-DC / Dirty Deeds Done Dirt Cheap (Albert CDP 746273 2)
Used drive : PLEXTOR DVDR PX-760A Adapter: 0 ID: 0
Read mode : SecureUtilize accurate stream : YesDefeat audio cache : YesMake use of C2 pointers : No
Read offset correction : 30Overread into Lead-In and Lead-Out : NoFill up missing offset samples with silence : YesDelete leading and trailing silent blocks : NoNull samples used in CRC calculations : YesUsed interface : Installed external ASPI interface
Used output format : Internal WAV RoutinesSample format : 44.100 Hz; 16 Bit; Stereo
TOC of the extracted CD
Track | Start | Length | Start sector | End sector --------------------------------------------------------- 1 | 0:00.00 | 4:13.35 | 0 | 19009 2 | 4:13.35 | 7:28.40 | 19010 | 52649 3 | 11:42.00 | 3:17.67 | 52650 | 67491 4 | 14:59.67 | 5:26.55 | 67492 | 91996 5 | 20:26.47 | 5:11.15 | 91997 | 115336 6 | 25:37.62 | 2:39.05 | 115337 | 127266 7 | 28:16.67 | 3:34.33 | 127267 | 143349 8 | 31:51.25 | 5:50.45 | 143350 | 169644 9 | 37:41.70 | 4:40.40 | 169645 | 190684
Range status and errors
Selected range
Filename D:\bki71\AC-DC - Dirty Deeds Done Dirt Cheap (Albert CDP 746273 2).wav
Peak level 97.5 % Range quality 100.0 % Test CRC 24EAD9D3 Copy CRC 24EAD9D3 Copy OK
No errors occurred
AccurateRip summary
Track 1 accurately ripped (confidence 3) [EF682DDD]Track 2 accurately ripped (confidence 3) [6D5CB578]Track 3 accurately ripped (confidence 3) [6B737814]Track 4 accurately ripped (confidence 3) [DDB35D02]Track 5 accurately ripped (confidence 3) [AAEADBBA]Track 6 accurately ripped (confidence 3) [FE1662F6]Track 7 accurately ripped (confidence 3) [1ECDA90F]Track 8 accurately ripped (confidence 3) [541FEF54]Track 9 accurately ripped (confidence 3) [3A909D05]
All tracks accurately ripped
End of status report

1989 Australia Albert/CBS 465258 2

Треклист:
01. Dirty Deeds Done Dirt Cheap (4:14)
02. Ain't No Fun (Waiting 'Round To Be A Millionaire) (7:31)
03. There's Gonna Be Some Rockin' (3:18)
04. Problem Child (5:49)
05. Squealer (5:18)
06. Big Balls (2:39)
07. R.I.P. (Rock In Peace) (3:35)
08. Ride On (5:51)
09. Jailbreak (4:42)
Продолжительность: 42:03

Лог создания рипа

Exact Audio Copy V1.0 beta 3 from 29. August 2011
EAC extraction logfile from 23. January 2015, 11:19
AC-DC / Dirty Deeds Done Dirt Cheap (Albert 465258 2)
Used drive : PLEXTOR DVDR PX-760A Adapter: 1 ID: 0
Read mode : SecureUtilize accurate stream : YesDefeat audio cache : YesMake use of C2 pointers : No
Read offset correction : 30Overread into Lead-In and Lead-Out : NoFill up missing offset samples with silence : YesDelete leading and trailing silent blocks : NoNull samples used in CRC calculations : YesUsed interface : Native Win32 interface for Win NT & 2000
Used output format : User Defined EncoderSelected bitrate : 1024 kBit/sQuality : HighAdd ID3 tag : NoCommand line compressor : C:\Program Files (x86)\Exact Audio Copy\Flac\flac.exeAdditional command line options : -V -8 -T "Date=%year%" -T "Genre=%genre%" %source%
TOC of the extracted CD
Track | Start | Length | Start sector | End sector --------------------------------------------------------- 1 | 0:00.00 | 4:13.70 | 0 | 19044 2 | 4:13.70 | 7:30.50 | 19045 | 52844 3 | 11:44.45 | 3:18.10 | 52845 | 67704 4 | 15:02.55 | 5:49.37 | 67705 | 93916 5 | 20:52.17 | 5:18.08 | 93917 | 117774 6 | 26:10.25 | 2:38.62 | 117775 | 129686 7 | 28:49.12 | 3:35.05 | 129687 | 145816 8 | 32:24.17 | 5:51.15 | 145817 | 172156 9 | 38:15.32 | 4:41.60 | 172157 | 193291
Range status and errors
Selected range
Filename F:\bki71\AC-DC\AC-DC - Dirty Deeds Done Dirt Cheap (Albert 465258 2).wav
Peak level 100.0 % Extraction speed 2.5 X Range quality 100.0 % Test CRC 00BBA39A Copy CRC 00BBA39A Copy OK
No errors occurred
AccurateRip summary
Track 1 accurately ripped (confidence 20) [10BBEA7F] (AR v2)Track 2 accurately ripped (confidence 20) [E1D13E12] (AR v2)Track 3 accurately ripped (confidence 20) [A3921751] (AR v2)Track 4 accurately ripped (confidence 19) [54FF58CA] (AR v2)Track 5 accurately ripped (confidence 20) [4C70C472] (AR v2)Track 6 accurately ripped (confidence 20) [EB6696E5] (AR v2)Track 7 accurately ripped (confidence 20) [554C8674] (AR v2)Track 8 accurately ripped (confidence 19) [26AEBB08] (AR v2)Track 9 accurately ripped (confidence 19) [D690A115] (AR v2)
All tracks accurately ripped
End of status report
==== Log checksum B612E85F848F4AD64E974FE1B45E074B0A0CADAE0F541A44DC87B17DD6396C1A ====

1995 Australia Remaster, Albert/EMI 4770842

Треклист:
01. Dirty Deeds Done Dirt Cheap (4:13)
02. Ain't No Fun (Waiting 'Round To Be A Millionaire) (7:29)
03. There's Gonna Be Some Rockin' (3:17)
04. Problem Child (5:25)
05. Squealer (5:36)
06. Big Balls (2:39)
07. R.I.P. (Rock In Peace) (3:35)
08. Ride On (5:49)
09. Jailbreak (4:40)
Продолжительность: 42:43

Лог создания рипа

Exact Audio Copy V0.99 prebeta 5 from 4. May 2009
EAC Auslese-Logdatei vom 12. Juni 2010, 22:48
AC DC / Dirty Deeds Done Dirt Cheap [Australian Version]
Benutztes Laufwerk : HL-DT-STDVD-ROM GDR-H30N Adapter: 0 ID: 1
Lesemodus : SicherBenutze Accurate Stream : JaAudio Puffer abgeschaltet : JaBenutze C2 Fehlerinformationen : Nein
Leseoffset Korrektur : 6Ьberlesen in das Lead-In und Lead-Out : NeinFьlle fehlende Offsetsample mit Stille auf : JaLцsche fьhrende und nachfolgende stille Blцcke : NeinNull Samples gehen in CRC Berechnungen ein : JaBenutzte Schnittstelle : Installierte externe ASPI Schnittstelle
Benutztes Ausgabeformat : Interne WAV RoutinenSampleformat : 44.100 Hz; 16 Bit; Stereo
TOC der ausgelesenen CD
Track | Start | Lдnge | Startsektor | Endsektor ------------------------------------------------------- 1 | 0:00.00 | 4:12.40 | 0 | 18939 2 | 4:12.40 | 7:28.57 | 18940 | 52596 3 | 11:41.22 | 3:17.28 | 52597 | 67399 4 | 14:58.50 | 5:24.47 | 67400 | 91746 5 | 20:23.22 | 5:35.50 | 91747 | 116921 6 | 25:58.72 | 2:38.53 | 116922 | 128824 7 | 28:37.50 | 3:35.17 | 128825 | 144966 8 | 32:12.67 | 5:49.18 | 144967 | 171159 9 | 38:02.10 | 4:40.37 | 171160 | 192196
Bereichsstatus und Fehler
Gewдhlter Bereich
Dateiname K:\Audi\ACDC\1995 Australian Edition\1976 - Dirty Deeds Done Dirt Cheap\AC DC - Dirty Deeds Done Dirt Cheap [Australian Version].wav
Spitzenpegel 100.0 % Bereichsqualitдt 100.0 % Kopie CRC 8F154AED Kopie OK
Keine Fehler aufgetreten
AccurateRip Ьbersicht
Track 1 akkurat gelesen (Zuversicht 11) [C149C999]Track 2 akkurat gelesen (Zuversicht 10) [D466EEFD]Track 3 akkurat gelesen (Zuversicht 11) [3D908AFE]Track 4 akkurat gelesen (Zuversicht 11) [D50A66ED]Track 5 akkurat gelesen (Zuversicht 11) [DEC4B801]Track 6 akkurat gelesen (Zuversicht 11) [0421F4CF]Track 7 akkurat gelesen (Zuversicht 11) [A151E3C2]Track 8 akkurat gelesen (Zuversicht 10) [D30AD50C]Track 9 akkurat gelesen (Zuversicht 10) [72840374]
Alle Tracks wurden akkurat gelesen
Ende des Statusreports

1976 - High Voltage

1987 Japan Victor for USA, ATCO 36-142-2

Треклист:
01. It's A Long Way To The Top (If You Wanna Rock 'N' Roll) (5:00)
02. Rock 'N' Roll Singer (5:03)
03. The Jack (5:50)
04. Live Wire (5:47)
05. T.N.T. (3:34)
06. Can I Sit Next To You Girl (4:11)
07. Little Lover (5:37)
08. She's Got Balls (4:50)
09. High Voltage (4:02)
Продолжительность: 43:54

Лог создания рипа

Exact Audio Copy V1.0 beta 1 from 15. November 2010
EAC extraction logfile from 13. June 2011, 20:38
AC-DC / High Voltage (ATCO 36-142-2, Japan press)
Used drive : PLEXTOR DVDR PX-760A Adapter: 0 ID: 0
Read mode : SecureUtilize accurate stream : YesDefeat audio cache : YesMake use of C2 pointers : No
Read offset correction : 30Overread into Lead-In and Lead-Out : NoFill up missing offset samples with silence : YesDelete leading and trailing silent blocks : NoNull samples used in CRC calculations : YesUsed interface : Native Win32 interface for Win NT & 2000
Used output format : User Defined EncoderSelected bitrate : 1024 kBit/sQuality : HighAdd ID3 tag : NoCommand line compressor : C:\Program Files (x86)\Exact Audio Copy\Flac\flac.exeAdditional command line options : -T "DATE=%y" -T "GENRE=%m" -8 -V %s
TOC of the extracted CD
Track | Start | Length | Start sector | End sector --------------------------------------------------------- 1 | 0:00.37 | 5:00.15 | 37 | 22551 2 | 5:00.52 | 5:02.53 | 22552 | 45254 3 | 10:03.30 | 5:50.32 | 45255 | 71536 4 | 15:53.62 | 5:47.35 | 71537 | 97596 5 | 21:41.22 | 3:33.43 | 97597 | 113614 6 | 25:14.65 | 4:10.50 | 113615 | 132414 7 | 29:25.40 | 5:36.42 | 132415 | 157656 8 | 35:02.07 | 4:49.70 | 157657 | 179401 9 | 39:52.02 | 4:02.23 | 179402 | 197574
Range status and errors
Selected range
Filename D:\bki71\AC-DC - High Voltage (ATCO 36-142-2, Japan press).wav
Peak level 100.0 % Extraction speed 0.7 X Range quality 100.0 % Test CRC B1C733F6 Copy CRC B1C733F6 Copy OK
No errors occurred
AccurateRip summary
Track 1 accurately ripped (confidence 2) [7FF3BA28]Track 2 accurately ripped (confidence 2) [68D179D9]Track 3 accurately ripped (confidence 2) [D53D7473]Track 4 accurately ripped (confidence 2) [7DFE2487]Track 5 accurately ripped (confidence 2) [AB97824D]Track 6 accurately ripped (confidence 2) [848CA6DA]Track 7 accurately ripped (confidence 2) [ECCE303C]Track 8 accurately ripped (confidence 2) [74F2C036]Track 9 accurately ripped (confidence 2) [72AACA6F]
All tracks accurately ripped
End of status report
==== Log checksum B45D175CB3439CC77D73ED29E6B0E473BCA7D2E5DD958797D3F43D6AC6F95AE5 ====

1988 USA ATCO 36-142-2

Треклист:
01. It's A Long Way To The Top (If You Wanna Rock 'N' Roll) (4:59)
02. Rock 'N' Roll Singer (5:03)
03. The Jack (5:50)
04. Live Wire (5:47)
05. T. N. T. (3:34)
06. Can I Sit Next To You Girl (4:11)
07. Little Lover (5:37)
08. She's Got Balls (4:50)
09. High Voltage (4:01)
Продолжительность: 43:52

Лог создания рипа

Exact Audio Copy V0.99 prebeta 4 from 23. January 2008
EAC extraction logfile from 18. April 2011, 18:35
AC-DC / High Voltage (ATCO 36-142-2)
Used drive : PLEXTOR DVDR PX-760A Adapter: 0 ID: 0
Read mode : SecureUtilize accurate stream : YesDefeat audio cache : YesMake use of C2 pointers : No
Read offset correction : 30Overread into Lead-In and Lead-Out : NoFill up missing offset samples with silence : YesDelete leading and trailing silent blocks : NoNull samples used in CRC calculations : YesUsed interface : Installed external ASPI interface
Used output format : Internal WAV RoutinesSample format : 44.100 Hz; 16 Bit; Stereo
TOC of the extracted CD
Track | Start | Length | Start sector | End sector --------------------------------------------------------- 1 | 0:00.32 | 4:59.28 | 32 | 22484 2 | 4:59.60 | 5:02.52 | 22485 | 45186 3 | 10:02.37 | 5:50.33 | 45187 | 71469 4 | 15:52.70 | 5:47.35 | 71470 | 97529 5 | 21:40.30 | 3:33.42 | 97530 | 113546 6 | 25:13.72 | 4:10.50 | 113547 | 132346 7 | 29:24.47 | 5:36.43 | 132347 | 157589 8 | 35:01.15 | 4:49.70 | 157590 | 179334 9 | 39:51.10 | 4:01.22 | 179335 | 197431
Range status and errors
Selected range
Filename D:\bki71\AC-DC - High Voltage (ATCO 36-142-2).wav
Peak level 100.0 % Range quality 100.0 % Test CRC D29A99ED Copy CRC D29A99ED Copy OK
No errors occurred
AccurateRip summary
Track 1 accurately ripped (confidence 22) [D2F6642E]Track 2 accurately ripped (confidence 22) [F359E58E]Track 3 accurately ripped (confidence 22) [3CE883FA]Track 4 accurately ripped (confidence 23) [B2D01A44]Track 5 accurately ripped (confidence 23) [359C2C05]Track 6 accurately ripped (confidence 21) [FF4898A0]Track 7 accurately ripped (confidence 23) [F1C1D3CB]Track 8 accurately ripped (confidence 22) [AA7B9C50]Track 9 accurately ripped (confidence 24) [93E80A9B]
All tracks accurately ripped
End of status report

1988 Germany ATCO 7567-90410-2

Треклист:
01. It's A Long Way To The Top (If You Wanna Rock 'N' Roll) (4:59)
02. Rock 'N' Roll Singer (5:03)
03. The Jack (5:50)
04. Live Wire (5:47)
05. T. N. T. (3:34)
06. Can I Sit Next To You Girl (4:11)
07. Little Lover (5:37)
08. She's Got Balls (4:50)
09. High Voltage (4:01)
Продолжительность: 43:52

Лог создания рипа

Exact Audio Copy V0.99 prebeta 4 from 23. January 2008
EAC Auslese-Logdatei vom 25. Juni 2009, 2:35
AC-DC / High Voltage
Benutztes Laufwerk : HL-DT-STDVD-ROM GDR-H30N Adapter: 0 ID: 1
Lesemodus : SicherBenutze Accurate Stream : JaAudio Puffer abgeschaltet : JaBenutze C2 Fehlerinformationen : Nein
Leseoffset Korrektur : 6Ьberlesen in das Lead-In und Lead-Out : NeinFьlle fehlende Offsetsample mit Stille auf : JaLцsche fьhrende und nachfolgende stille Blцcke : NeinNull Samples gehen in CRC Berechnungen ein : JaBenutzte Schnittstelle : Installierte externe ASPI Schnittstelle
Benutztes Ausgabeformat : Interne WAV RoutinenSampleformat : 44.100 Hz; 16 Bit; Stereo
TOC der ausgelesenen CD
Track | Start | Lдnge | Startsektor | Endsektor ------------------------------------------------------- 1 | 0:00.32 | 4:59.28 | 32 | 22484 2 | 4:59.60 | 5:02.52 | 22485 | 45186 3 | 10:02.37 | 5:50.33 | 45187 | 71469 4 | 15:52.70 | 5:47.35 | 71470 | 97529 5 | 21:40.30 | 3:33.42 | 97530 | 113546 6 | 25:13.72 | 4:10.50 | 113547 | 132346 7 | 29:24.47 | 5:36.43 | 132347 | 157589 8 | 35:01.15 | 4:49.70 | 157590 | 179334 9 | 39:51.10 | 4:01.22 | 179335 | 197431
Bereichsstatus und Fehler
Gewдhlter Bereich
Dateiname K:\AC-DC - Unremastered Albums\1976 - High Voltage\AC-DC - High Voltage.wav
Spitzenpegel 100.0 % Bereichsqualitдt 100.0 % Kopie CRC AC32347A Kopie OK
Keine Fehler aufgetreten
AccurateRip Ьbersicht
Track 1 akkurat gelesen (Zuversicht 36) [3BED1141]Track 2 akkurat gelesen (Zuversicht 36) [986E0E97]Track 3 akkurat gelesen (Zuversicht 37) [F4E60B83]Track 4 akkurat gelesen (Zuversicht 36) [A1319493]Track 5 akkurat gelesen (Zuversicht 38) [78B3836D]Track 6 akkurat gelesen (Zuversicht 37) [691AE04A]Track 7 akkurat gelesen (Zuversicht 37) [933DD4D4]Track 8 akkurat gelesen (Zuversicht 36) [1839BDCE]Track 9 akkurat gelesen (Zuversicht 36) [39D64FA8]
Alle Tracks wurden akkurat gelesen
Ende des Statusreports

1990 Japan ATCO/MMG AMCY-37

Треклист:
01. It's A Long Way To The Top (If You Wanna Rock 'N' Roll) (5:00)
02. Rock 'N' Roll Singer (5:03)
03. The Jack (5:50)
04. Live Wire (5:47)
05. T.N. T. (3:34)
06. Can I Sit Next To You Girl (4:11)
07. Little Lover (5:37)
08. She's Got Balls (4:50)
09. High Voltage (4:03)
Продолжительность: 43:54

Лог создания рипа

Exact Audio Copy V0.99 prebeta 4 from 23. January 2008
EAC extraction logfile from 5. February 2011, 19:33
AC-DC / High Voltage (AMCY-37)
Used drive : PLEXTOR DVDR PX-760A Adapter: 0 ID: 0
Read mode : SecureUtilize accurate stream : YesDefeat audio cache : YesMake use of C2 pointers : No
Read offset correction : 30Overread into Lead-In and Lead-Out : NoFill up missing offset samples with silence : YesDelete leading and trailing silent blocks : NoNull samples used in CRC calculations : YesUsed interface : Installed external ASPI interface
Used output format : Internal WAV RoutinesSample format : 44.100 Hz; 16 Bit; Stereo
TOC of the extracted CD
Track | Start | Length | Start sector | End sector --------------------------------------------------------- 1 | 0:00.00 | 5:00.00 | 0 | 22499 2 | 5:00.00 | 5:02.40 | 22500 | 45189 3 | 10:02.40 | 5:50.35 | 45190 | 71474 4 | 15:53.00 | 5:47.32 | 71475 | 97531 5 | 21:40.32 | 3:33.45 | 97532 | 113551 6 | 25:14.02 | 4:10.50 | 113552 | 132351 7 | 29:24.52 | 5:36.43 | 132352 | 157594 8 | 35:01.20 | 4:49.72 | 157595 | 179341 9 | 39:51.17 | 4:03.13 | 179342 | 197579
Range status and errors
Selected range
Filename D:\bki71\AC-DC - High Voltage (AMCY-37).wav
Peak level 100.0 % Range quality 100.0 % Test CRC D4AB1225 Copy CRC D4AB1225 Copy OK
No errors occurred
AccurateRip summary
Track 1 accurately ripped (confidence 3) [D5500FCB]Track 2 accurately ripped (confidence 3) [B85361FF]Track 3 accurately ripped (confidence 3) [D092EE83]Track 4 accurately ripped (confidence 3) [396C4F03]Track 5 accurately ripped (confidence 3) [4B3291CD]Track 6 accurately ripped (confidence 3) [023963EA]Track 7 accurately ripped (confidence 3) [A09BABE4]Track 8 accurately ripped (confidence 3) [BDFC30AE]Track 9 accurately ripped (confidence 3) [2D779AF3]
All tracks accurately ripped
End of status report

1994 Germany Remaster, ATCO 7567-92413-2

Треклист:
01. It's A Long Way To The Top (If You Wanna Rock'N'Roll) (5:16)
02. Rock'N'Roll Singer (5:04)
03. The Jack (5:52)
04. Live Wire (5:50)
05. T.N.T. (3:35)
06. Can I Sit Next To You Girl (4:12)
07. Little Lover (5:39)
08. She's Got Balls (4:51)
09. High Voltage (4:03)
Продолжительность: 44:21

Лог создания рипа

Exact Audio Copy V1.0 beta 1 from 15. November 2010
EAC extraction logfile from 20. March 2011, 14:50
AC-DC / High Voltage
Used drive : PLEXTOR CD-R PREMIUM Adapter: 1 ID: 0
Read mode : SecureUtilize accurate stream : YesDefeat audio cache : YesMake use of C2 pointers : No
Read offset correction : 30Overread into Lead-In and Lead-Out : NoFill up missing offset samples with silence : YesDelete leading and trailing silent blocks : NoNull samples used in CRC calculations : YesUsed interface : Native Win32 interface for Win NT & 2000
Used output format : User Defined EncoderSelected bitrate : 1024 kBit/sQuality : HighAdd ID3 tag : NoCommand line compressor : C:\!tools\wavpack.exeAdditional command line options : -hlm %s
TOC of the extracted CD
Track | Start | Length | Start sector | End sector --------------------------------------------------------- 1 | 0:00.00 | 5:15.67 | 0 | 23691 2 | 5:15.67 | 5:03.58 | 23692 | 46474 3 | 10:19.50 | 5:51.62 | 46475 | 72861 4 | 16:11.37 | 5:49.70 | 72862 | 99106 5 | 22:01.32 | 3:34.43 | 99107 | 115199 6 | 25:36.00 | 4:11.52 | 115200 | 134076 7 | 29:47.52 | 5:39.35 | 134077 | 159536 8 | 35:27.12 | 4:50.58 | 159537 | 181344 9 | 40:17.70 | 4:03.37 | 181345 | 199606
Range status and errors
Selected range
Filename D:\CB_RAB\AC-DC - 1976 - High Voltage\AC-DC - High Voltage.wav
Peak level 99.8 % Extraction speed 0.5 X Range quality 100.0 % Test CRC C06320C0 Copy CRC C06320C0 Copy OK
No errors occurred
AccurateRip summary
Track 1 accurately ripped (confidence 2) [6FDA3D5C]Track 2 accurately ripped (confidence 2) [AD4B097B]Track 3 accurately ripped (confidence 2) [3BF86133]Track 4 accurately ripped (confidence 2) [3C388BAC]Track 5 accurately ripped (confidence 2) [2155684E]Track 6 accurately ripped (confidence 2) [F30CBE23]Track 7 accurately ripped (confidence 2) [39F95073]Track 8 accurately ripped (confidence 2) [FA928342]Track 9 accurately ripped (confidence 2) [53DC7505]
All tracks accurately ripped
End of status report
==== Log checksum EE111A5AB39EB66D3FE3AC61E96CAFEF72EBC5941EF3C8145144C21D803C28F8 ====

1976 - Dirty Deeds Done Dirt Cheap

1986 USA DADC, Atlantic 16033-2/DIDX 1376

Треклист:
01. Dirty Deeds Done Dirt Cheap (3:51)
02. Love at First Feel (3:10)
03. Big Balls (2:38)
04. Rocker (2:51)
05. Problem Child (5:46)
06. There's Gonna be Some Rockin' (3:16)
07. Ain't No Fun (Waiting Round to be a Millionaire) (6:54)
08. Ride On (5:52)
09. Squealer (5:11)
Продолжительность: 39:29

Лог создания рипа

Exact Audio Copy V0.99 prebeta 5 from 4. May 2009
EAC extraction logfile from 14. August 2013, 13:47
AC-DC / Dirty Deeds Done Dirt Cheap (USA Atlantic 16033-2, DIDX 1376)
Used drive : PLEXTOR DVDR PX-760A Adapter: 0 ID: 0
Read mode : SecureUtilize accurate stream : YesDefeat audio cache : YesMake use of C2 pointers : No
Read offset correction : 30Overread into Lead-In and Lead-Out : NoFill up missing offset samples with silence : YesDelete leading and trailing silent blocks : NoNull samples used in CRC calculations : YesUsed interface : Native Win32 interface for Win NT & 2000
Used output format : User Defined EncoderSelected bitrate : 1024 kBit/sQuality : HighAdd ID3 tag : NoCommand line compressor : C:\Program Files (x86)\Exact Audio Copy\Flac\flac.exeAdditional command line options : -8 -V %s
TOC of the extracted CD
Track | Start | Length | Start sector | End sector --------------------------------------------------------- 1 | 0:00.00 | 3:51.05 | 0 | 17329 2 | 3:51.05 | 3:10.20 | 17330 | 31599 3 | 7:01.25 | 2:37.62 | 31600 | 43436 4 | 9:39.12 | 2:50.68 | 43437 | 56254 5 | 12:30.05 | 5:46.27 | 56255 | 82231 6 | 18:16.32 | 3:16.05 | 82232 | 96936 7 | 21:32.37 | 6:54.05 | 96937 | 127991 8 | 28:26.42 | 5:51.68 | 127992 | 154384 9 | 34:18.35 | 5:10.40 | 154385 | 177674
Range status and errors
Selected range
Filename D:\bki71\AC-DC\AC-DC - Dirty Deeds Done Dirt Cheap (USA Atlantic 16033-2, DIDX 1376).wav
Peak level 100.0 % Range quality 100.0 % Test CRC 771DEE5B Copy CRC 771DEE5B Copy OK
No errors occurred
AccurateRip summary
Track 1 accurately ripped (confidence 7) [989AC67D]Track 2 accurately ripped (confidence 7) [80F601F9]Track 3 accurately ripped (confidence 7) [A2E5B0DB]Track 4 accurately ripped (confidence 7) [5329FE93]Track 5 accurately ripped (confidence 7) [31E31E8B]Track 6 accurately ripped (confidence 6) [C9286FAC]Track 7 accurately ripped (confidence 7) [E66A7A10]Track 8 accurately ripped (confidence 7) [CF5EBFE3]Track 9 accurately ripped (confidence 6) [72992456]
All tracks accurately ripped
End of status report

1987 Germany Atlantic 7567-81481-2

Треклист:
01. Dirty Deeds Done Dirt Cheap (3:51)
02. Love at First Feel (3:10)
03. Big Balls (2:38)
04. Rocker (2:51)
05. Problem Child (5:46)
06. There's Gonna be Some Rockin' (3:16)
07. Ain't No Fun (Waiting Round to be a Millionaire) (6:54)
08. Ride On (5:52)
09. Squealer (5:10)
Продолжительность: 39:29

Лог создания рипа

Exact Audio Copy V0.99 prebeta 4 from 23. January 2008
EAC Auslese-Logdatei vom 25. Juni 2009, 10:46
AC-DC / Dirty Deeds Done Dirt Cheap
Benutztes Laufwerk : HL-DT-STDVD-ROM GDR-H30N Adapter: 0 ID: 1
Lesemodus : SicherBenutze Accurate Stream : JaAudio Puffer abgeschaltet : JaBenutze C2 Fehlerinformationen : Nein
Leseoffset Korrektur : 6Ьberlesen in das Lead-In und Lead-Out : NeinFьlle fehlende Offsetsample mit Stille auf : JaLцsche fьhrende und nachfolgende stille Blцcke : NeinNull Samples gehen in CRC Berechnungen ein : JaBenutzte Schnittstelle : Installierte externe ASPI Schnittstelle
Benutztes Ausgabeformat : Interne WAV RoutinenSampleformat : 44.100 Hz; 16 Bit; Stereo
TOC der ausgelesenen CD
Track | Start | Lдnge | Startsektor | Endsektor ------------------------------------------------------- 1 | 0:00.33 | 3:50.70 | 33 | 17352 2 | 3:51.28 | 3:10.12 | 17353 | 31614 3 | 7:01.40 | 2:37.60 | 31615 | 43449 4 | 9:39.25 | 2:51.00 | 43450 | 56274 5 | 12:30.25 | 5:46.28 | 56275 | 82252 6 | 18:16.53 | 3:16.02 | 82253 | 96954 7 | 21:32.55 | 6:54.08 | 96955 | 128012 8 | 28:26.63 | 5:51.67 | 128013 | 154404 9 | 34:18.55 | 5:10.28 | 154405 | 177682
Bereichsstatus und Fehler
Gewдhlter Bereich
Dateiname K:\AC-DC - Unremastered Albums\1977 - Dirty Deeds Done Dirt Cheap\AC-DC - Dirty Deeds Done Dirt Cheap.wav
Spitzenpegel 100.0 % Bereichsqualitдt 100.0 % Kopie CRC 03A331FA Kopie OK
Keine Fehler aufgetreten
AccurateRip Ьbersicht
Track 1 akkurat gelesen (Zuversicht 55) [0C058F08]Track 2 akkurat gelesen (Zuversicht 55) [2A3AEF03]Track 3 akkurat gelesen (Zuversicht 54) [DAA37E73]Track 4 akkurat gelesen (Zuversicht 54) [93B8BE47]Track 5 akkurat gelesen (Zuversicht 53) [AFF995EF]Track 6 akkurat gelesen (Zuversicht 53) [88BDD6A2]Track 7 akkurat gelesen (Zuversicht 54) [A568E49A]Track 8 akkurat gelesen (Zuversicht 53) [777D0066]Track 9 akkurat gelesen (Zuversicht 51) [7203E20B]
Alle Tracks wurden akkurat gelesen
Ende des Statusreports

1988 USA Atlantic 16033-2

Треклист:
01. Dirty Deeds Done Dirt Cheap (3:51)
02. Love at First Feel (3:10)
03. Big Balls (2:38)
04. Rocker (2:51)
05. Problem Child (5:46)
06. There's Gonna be Some Rockin' (3:16)
07. Ain't No Fun (Waiting Round to be a Millionaire) (6:54)
08. Ride On (5:52)
09. Squealer (5:11)
Продолжительность: 39:29

Лог создания рипа

Exact Audio Copy V0.99 prebeta 5 from 4. May 2009
EAC extraction logfile from 14. August 2013, 13:47
AC-DC / Dirty Deeds Done Dirt Cheap (USA Atlantic 16033-2, DIDX 1376)
Used drive : PLEXTOR DVDR PX-760A Adapter: 0 ID: 0
Read mode : SecureUtilize accurate stream : YesDefeat audio cache : YesMake use of C2 pointers : No
Read offset correction : 30Overread into Lead-In and Lead-Out : NoFill up missing offset samples with silence : YesDelete leading and trailing silent blocks : NoNull samples used in CRC calculations : YesUsed interface : Native Win32 interface for Win NT & 2000
Used output format : User Defined EncoderSelected bitrate : 1024 kBit/sQuality : HighAdd ID3 tag : NoCommand line compressor : C:\Program Files (x86)\Exact Audio Copy\Flac\flac.exeAdditional command line options : -8 -V %s
TOC of the extracted CD
Track | Start | Length | Start sector | End sector --------------------------------------------------------- 1 | 0:00.00 | 3:51.05 | 0 | 17329 2 | 3:51.05 | 3:10.20 | 17330 | 31599 3 | 7:01.25 | 2:37.62 | 31600 | 43436 4 | 9:39.12 | 2:50.68 | 43437 | 56254 5 | 12:30.05 | 5:46.27 | 56255 | 82231 6 | 18:16.32 | 3:16.05 | 82232 | 96936 7 | 21:32.37 | 6:54.05 | 96937 | 127991 8 | 28:26.42 | 5:51.68 | 127992 | 154384 9 | 34:18.35 | 5:10.40 | 154385 | 177674
Range status and errors
Selected range
Filename D:\bki71\AC-DC\AC-DC - Dirty Deeds Done Dirt Cheap (USA Atlantic 16033-2, DIDX 1376).wav
Peak level 100.0 % Range quality 100.0 % Test CRC 771DEE5B Copy CRC 771DEE5B Copy OK
No errors occurred
AccurateRip summary
Track 1 accurately ripped (confidence 7) [989AC67D]Track 2 accurately ripped (confidence 7) [80F601F9]Track 3 accurately ripped (confidence 7) [A2E5B0DB]Track 4 accurately ripped (confidence 7) [5329FE93]Track 5 accurately ripped (confidence 7) [31E31E8B]Track 6 accurately ripped (confidence 6) [C9286FAC]Track 7 accurately ripped (confidence 7) [E66A7A10]Track 8 accurately ripped (confidence 7) [CF5EBFE3]Track 9 accurately ripped (confidence 6) [72992456]
All tracks accurately ripped
End of status report

1991 USA Denon, Atlantic 16033-2

Треклист:
01. Dirty Deeds Done Dirt Cheap (3:51)
02. Love at First Feel (3:10)
03. Big Balls (2:38)
04. Rocker (2:51)
05. Problem Child (5:46)
06. There's Gonna be Some Rockin' (3:16)
07. Ain't No Fun (Waiting Round to be a Millionaire) (6:54)
08. Ride On (5:52)
09. Squealer (5:11)
Продолжительность: 39:29

Лог создания рипа

Exact Audio Copy V0.99 prebeta 5 from 4. May 2009
EAC Auslese-Logdatei vom 16. Juli 2010, 0:02
ACDC / Dirty Deeds Done Dirt Cheap
Benutztes Laufwerk : HL-DT-STDVD-ROM GDR-H30N Adapter: 0 ID: 1
Lesemodus : SicherBenutze Accurate Stream : JaAudio Puffer abgeschaltet : JaBenutze C2 Fehlerinformationen : Nein
Leseoffset Korrektur : 6Ьberlesen in das Lead-In und Lead-Out : NeinFьlle fehlende Offsetsample mit Stille auf : JaLцsche fьhrende und nachfolgende stille Blцcke : NeinNull Samples gehen in CRC Berechnungen ein : JaBenutzte Schnittstelle : Installierte externe ASPI Schnittstelle
Benutztes Ausgabeformat : Interne WAV RoutinenSampleformat : 44.100 Hz; 16 Bit; Stereo
TOC der ausgelesenen CD
Track | Start | Lдnge | Startsektor | Endsektor ------------------------------------------------------- 1 | 0:00.00 | 3:51.05 | 0 | 17329 2 | 3:51.05 | 3:10.13 | 17330 | 31592 3 | 7:01.18 | 2:38.00 | 31593 | 43442 4 | 9:39.18 | 2:50.60 | 43443 | 56252 5 | 12:30.03 | 5:46.27 | 56253 | 82229 6 | 18:16.30 | 3:16.03 | 82230 | 96932 7 | 21:32.33 | 6:54.07 | 96933 | 127989 8 | 28:26.40 | 5:51.68 | 127990 | 154382 9 | 34:18.33 | 5:10.55 | 154383 | 177687
Bereichsstatus und Fehler
Gewдhlter Bereich
Dateiname L:\Audi\acdis\Original Albums\1976 - Dirty Deeds Done Dirt Cheap (Atlantic 16033-2)\ACDC - Dirty Deeds Done Dirt Cheap.wav
Spitzenpegel 97.7 % Bereichsqualitдt 100.0 % Kopie CRC 64982446 Kopie OK
Keine Fehler aufgetreten
AccurateRip Ьbersicht
Track 1 nicht in Datenbank enthaltenTrack 2 nicht in Datenbank enthaltenTrack 3 nicht in Datenbank enthaltenTrack 4 nicht in Datenbank enthaltenTrack 5 nicht in Datenbank enthaltenTrack 6 nicht in Datenbank enthaltenTrack 7 nicht in Datenbank enthaltenTrack 8 nicht in Datenbank enthaltenTrack 9 nicht in Datenbank enthalten
Keiner der Tracks ist in der AccurateRip Datenbank vorhanden
Ende des Statusreports

1994 Germany Remaster, ATCO 7567-92414-2

Треклист:
01. Dirty Deeds Done Dirt Cheap (4:12)
02. Love At First Feel (3:11)
03. Big Balls (2:38)
04. Rocker (2:50)
05. Problem Child (5:45)
06. There's Gonna Be Some Rockin' (3:17)
07. Ain't No Fun (Waiting Round To Be A Millionaire) (7:29)
08. Ride On (5:49)
09. Squealer (5:14)
Продолжительность: 40:26

Лог создания рипа

Exact Audio Copy V0.99 prebeta 4 from 23. January 2008
EAC Auslese-Logdatei vom 23. Juli 2009, 1:56
AC-DC / Dirty Deeds Done Dirt Cheap
Benutztes Laufwerk : HL-DT-STDVD-ROM GDR-H30N Adapter: 0 ID: 1
Lesemodus : SicherBenutze Accurate Stream : JaAudio Puffer abgeschaltet : JaBenutze C2 Fehlerinformationen : Nein
Leseoffset Korrektur : 6Ьberlesen in das Lead-In und Lead-Out : NeinFьlle fehlende Offsetsample mit Stille auf : JaLцsche fьhrende und nachfolgende stille Blцcke : NeinNull Samples gehen in CRC Berechnungen ein : JaBenutzte Schnittstelle : Installierte externe ASPI Schnittstelle
Benutztes Ausgabeformat : Interne WAV RoutinenSampleformat : 44.100 Hz; 16 Bit; Stereo
TOC der ausgelesenen CD
Track | Start | Lдnge | Startsektor | Endsektor ------------------------------------------------------- 1 | 0:00.00 | 4:12.00 | 0 | 18899 2 | 4:12.00 | 3:10.60 | 18900 | 33209 3 | 7:22.60 | 2:38.25 | 33210 | 45084 4 | 10:01.10 | 2:49.55 | 45085 | 57814 5 | 12:50.65 | 5:44.73 | 57815 | 83687 6 | 18:35.63 | 3:17.22 | 83688 | 98484 7 | 21:53.10 | 7:29.10 | 98485 | 132169 8 | 29:22.20 | 5:49.33 | 132170 | 158377 9 | 35:11.53 | 5:14.20 | 158378 | 181947
Bereichsstatus und Fehler
Gewдhlter Bereich
Dateiname K:\AC-DC - Unremastered Albums\1994 - Dirty Deeds Done Dirt Cheap\AC-DC - Dirty Deeds Done Dirt Cheap.wav
Spitzenpegel 99.8 % Bereichsqualitдt 100.0 % Kopie CRC 9D15095F Kopie OK
Keine Fehler aufgetreten
AccurateRip Ьbersicht
Track 1 akkurat gelesen (Zuversicht 44) [D893740E]Track 2 akkurat gelesen (Zuversicht 45) [CC584638]Track 3 akkurat gelesen (Zuversicht 44) [D499F956]Track 4 akkurat gelesen (Zuversicht 45) [1BC34E78]Track 5 akkurat gelesen (Zuversicht 45) [B9C6755E]Track 6 akkurat gelesen (Zuversicht 45) [FAE3E3F6]Track 7 akkurat gelesen (Zuversicht 45) [C327B83F]Track 8 akkurat gelesen (Zuversicht 45) [453C862C]Track 9 akkurat gelesen (Zuversicht 44) [D71C96AE]
Alle Tracks wurden akkurat gelesen
Ende des Statusreports

1977 - Let There Be Rock (Australian Release)

1987 Japan for Australia, Albert/EMI CDP 746666 2

Треклист:
01. Go Down (5:22)
02. Dog Eat Dog (3:33)
03. Let There Be Rock (6:10)
04. Bad Boy Boogie (4:26)
05. Overdose (6:08)
06. Crabsody In Blue (4:44)
07. Hell Ain't A Bad Place To Be (4:20)
08. Whole Lotta Rosie (5:21)
Продолжительность: 40:03

Лог создания рипа

Exact Audio Copy V1.0 beta 3 from 29. August 2011
EAC extraction logfile from 23. January 2015, 12:24
AC-DC / Let There Be Rock (Albert CDP 746666 2)
Used drive : PIONEER DVD-RW DVR-215 Adapter: 0 ID: 0
Read mode : SecureUtilize accurate stream : YesDefeat audio cache : YesMake use of C2 pointers : No
Read offset correction : 48Overread into Lead-In and Lead-Out : NoFill up missing offset samples with silence : YesDelete leading and trailing silent blocks : NoNull samples used in CRC calculations : YesUsed interface : Native Win32 interface for Win NT & 2000
Used output format : User Defined EncoderSelected bitrate : 1024 kBit/sQuality : HighAdd ID3 tag : NoCommand line compressor : C:\Program Files (x86)\Exact Audio Copy\Flac\flac.exeAdditional command line options : -V -8 -T "Date=%year%" -T "Genre=%genre%" %source%
TOC of the extracted CD
Track | Start | Length | Start sector | End sector --------------------------------------------------------- 1 | 0:00.00 | 5:21.50 | 0 | 24124 2 | 5:21.50 | 3:32.67 | 24125 | 40091 3 | 8:54.42 | 6:09.68 | 40092 | 67834 4 | 15:04.35 | 4:26.10 | 67835 | 87794 5 | 19:30.45 | 6:07.57 | 87795 | 115376 6 | 25:38.27 | 4:43.65 | 115377 | 136666 7 | 30:22.17 | 4:19.45 | 136667 | 156136 8 | 34:41.62 | 5:21.13 | 156137 | 180224
Range status and errors
Selected range
Filename F:\bki71\AC-DC\AC-DC - Let There Be Rock (Albert CDP 746666 2).wav
Peak level 100.0 % Extraction speed 7.1 X Range quality 99.9 % Test CRC 8E45675E Copy CRC 8E45675E Copy OK
No errors occurred
AccurateRip summary
Track 1 accurately ripped (confidence 3) [461DB9DE] (AR v2)Track 2 accurately ripped (confidence 3) [16E5649C] (AR v2)Track 3 accurately ripped (confidence 3) [F218503D] (AR v2)Track 4 accurately ripped (confidence 3) [A396EEF9] (AR v2)Track 5 accurately ripped (confidence 3) [804BEDB4] (AR v2)Track 6 accurately ripped (confidence 3) [54FB157D] (AR v2)Track 7 accurately ripped (confidence 3) [AC8350F4] (AR v2)Track 8 accurately ripped (confidence 3) [EB532884] (AR v2)
All tracks accurately ripped
End of status report
==== Log checksum A78FD7FD12547B6C30B80AE85ECE05465E17B69988F79BF59DACB95005A7394C ====

1989 Australia Albert/CBS 465256 2

Треклист:
01. Go Down (5:22)
02. Dog Eat Dog (3:33)
03. Let There Be Rock (6:09)
04. Bad Boy Boogie (4:29)
05. Overdose (6:08)
06. Crabsody In Blue (4:44)
07. Hell Ain't A Bad Place To Be (4:20)
08. Whole Lotta Rosie (5:22)
Продолжительность: 40:07

Лог создания рипа

Exact Audio Copy V1.0 beta 3 from 29. August 2011
EAC extraction logfile from 23. January 2015, 12:39
AC-DC / Let There Be Rock (Albert 465256 2)
Used drive : PIONEER DVD-RW DVR-215 Adapter: 0 ID: 0
Read mode : SecureUtilize accurate stream : YesDefeat audio cache : YesMake use of C2 pointers : No
Read offset correction : 48Overread into Lead-In and Lead-Out : NoFill up missing offset samples with silence : YesDelete leading and trailing silent blocks : NoNull samples used in CRC calculations : YesUsed interface : Native Win32 interface for Win NT & 2000
Used output format : User Defined EncoderSelected bitrate : 1024 kBit/sQuality : HighAdd ID3 tag : NoCommand line compressor : C:\Program Files (x86)\Exact Audio Copy\Flac\flac.exeAdditional command line options : -V -8 -T "Date=%year%" -T "Genre=%genre%" %source%
TOC of the extracted CD
Track | Start | Length | Start sector | End sector --------------------------------------------------------- 1 | 0:00.00 | 5:22.15 | 0 | 24164 2 | 5:22.15 | 3:32.67 | 24165 | 40131 3 | 8:55.07 | 6:09.30 | 40132 | 67836 4 | 15:04.37 | 4:29.00 | 67837 | 88011 5 | 19:33.37 | 6:07.63 | 88012 | 115599 6 | 25:41.25 | 4:43.65 | 115600 | 136889 7 | 30:25.15 | 4:19.42 | 136890 | 156356 8 | 34:44.57 | 5:22.35 | 156357 | 180541
Range status and errors
Selected range
Filename F:\bki71\AC-DC\AC-DC - Let There Be Rock (Albert 465256 2).wav
Peak level 95.5 % Extraction speed 7.0 X Range quality 100.0 % Test CRC 7935D9E2 Copy CRC 7935D9E2 Copy OK
No errors occurred
AccurateRip summary
Track 1 accurately ripped (confidence 12) [D5E8BA82] (AR v2)Track 2 accurately ripped (confidence 12) [603355E8] (AR v2)Track 3 accurately ripped (confidence 12) [9D18A492] (AR v2)Track 4 accurately ripped (confidence 12) [32BDDB93] (AR v2)Track 5 accurately ripped (confidence 11) [81CD4F45] (AR v2)Track 6 accurately ripped (confidence 12) [FDBC71A8] (AR v2)Track 7 accurately ripped (confidence 12) [82D3661D] (AR v2)Track 8 accurately ripped (confidence 12) [05903246] (AR v2)
All tracks accurately ripped
End of status report
==== Log checksum 1E73BDB3064FD0A86D83063BCC87714A820DE1F6E6E3568A1EF631D25C98D252 ====

1995 Australia Remaster, Albert/EMI 4770852

Треклист:
01. Go Down (5:31)
02. Dog Eat Dog (3:35)
03. Let There Be Rock (6:07)
04. Bad Boy Boogie (4:27)
05. Overdose (6:09)
06. Crabsody In Blue (4:44)
07. Hell Ain't A Bad Place To Be (4:14)
08. Whole Lotta Rosie (5:25)
Продолжительность: 40:10

Лог создания рипа

Exact Audio Copy V0.99 prebeta 5 from 4. May 2009
EAC Auslese-Logdatei vom 14. Juni 2010, 16:20
AC/DC / Let There Be Rock
Benutztes Laufwerk : HL-DT-STDVD-ROM GDR-H30N Adapter: 0 ID: 1
Lesemodus : SicherBenutze Accurate Stream : JaAudio Puffer abgeschaltet : JaBenutze C2 Fehlerinformationen : Nein
Leseoffset Korrektur : 6Ьberlesen in das Lead-In und Lead-Out : NeinFьlle fehlende Offsetsample mit Stille auf : JaLцsche fьhrende und nachfolgende stille Blцcke : NeinNull Samples gehen in CRC Berechnungen ein : JaBenutzte Schnittstelle : Installierte externe ASPI Schnittstelle
Benutztes Ausgabeformat : Interne WAV RoutinenSampleformat : 44.100 Hz; 16 Bit; Stereo
TOC der ausgelesenen CD
Track | Start | Lдnge | Startsektor | Endsektor ------------------------------------------------------- 1 | 0:00.00 | 5:30.47 | 0 | 24796 2 | 5:30.47 | 3:34.68 | 24797 | 40914 3 | 9:05.40 | 6:06.72 | 40915 | 68436 4 | 15:12.37 | 4:27.15 | 68437 | 88476 5 | 19:39.52 | 6:09.10 | 88477 | 116161 6 | 25:48.62 | 4:43.43 | 116162 | 137429 7 | 30:32.30 | 4:13.40 | 137430 | 156444 8 | 34:45.70 | 5:24.42 | 156445 | 180786
Bereichsstatus und Fehler
Gewдhlter Bereich
Dateiname K:\Audi\ACDC\1995 Australian Edition\1977 - Let There Be Rock\AC DC - Let There Be Rock.wav
Spitzenpegel 100.0 % Bereichsqualitдt 100.0 % Kopie CRC 41F00FB2 Kopie OK
Keine Fehler aufgetreten
AccurateRip Ьbersicht
Track 1 akkurat gelesen (Zuversicht 11) [C0BBEDC3]Track 2 akkurat gelesen (Zuversicht 12) [2E6A71C0]Track 3 akkurat gelesen (Zuversicht 12) [58468881]Track 4 akkurat gelesen (Zuversicht 12) [633E5A78]Track 5 akkurat gelesen (Zuversicht 11) [A72B023B]Track 6 akkurat gelesen (Zuversicht 11) [B7034A2E]Track 7 akkurat gelesen (Zuversicht 12) [9A3E4C68]Track 8 akkurat gelesen (Zuversicht 10) [E7DD4B64]
Alle Tracks wurden akkurat gelesen
Ende des Statusreports

1977 - Let There Be Rock

1987 W.Germany ATCO 36-151-2

Треклист:
01. Go Down (5:20)
02. Dog Eat Dog (3:37)
03. Let There Be Rock (6:06)
04. Bad Boy Boogie (4:29)
05. Problem Child (5:27)
06. Overdose (6:13)
07. Hell Ain't A Bad Place To Be (4:21)
08. Whole Lotta Rosie (5:20)
Продолжительность: 40:53

Лог создания рипа

Exact Audio Copy V0.99 prebeta 5 from 4. May 2009
EAC extraction logfile from 14. August 2013, 13:10
AC-DC / Let There Be Rock (W.Germany ATCO 36-151-2)
Used drive : PLEXTOR DVDR PX-760A Adapter: 0 ID: 0
Read mode : SecureUtilize accurate stream : YesDefeat audio cache : YesMake use of C2 pointers : No
Read offset correction : 30Overread into Lead-In and Lead-Out : NoFill up missing offset samples with silence : YesDelete leading and trailing silent blocks : NoNull samples used in CRC calculations : YesUsed interface : Native Win32 interface for Win NT & 2000
Used output format : User Defined EncoderSelected bitrate : 1024 kBit/sQuality : HighAdd ID3 tag : NoCommand line compressor : C:\Program Files (x86)\Exact Audio Copy\Flac\flac.exeAdditional command line options : -8 -V %s
TOC of the extracted CD
Track | Start | Length | Start sector | End sector --------------------------------------------------------- 1 | 0:00.32 | 5:20.35 | 32 | 24066 2 | 5:20.67 | 3:37.25 | 24067 | 40366 3 | 8:58.17 | 6:05.53 | 40367 | 67794 4 | 15:03.70 | 4:29.30 | 67795 | 87999 5 | 19:33.25 | 5:26.42 | 88000 | 112491 6 | 24:59.67 | 6:12.48 | 112492 | 140439 7 | 31:12.40 | 4:21.12 | 140440 | 160026 8 | 35:33.52 | 5:19.70 | 160027 | 184021
Range status and errors
Selected range
Filename D:\bki71\AC-DC\AC-DC - Let There Be Rock (W.Germany ATCO 36-151-2).wav
Peak level 96.4 % Range quality 99.9 % Test CRC 2F88480B Copy CRC 2F88480B Copy OK
No errors occurred
AccurateRip summary
Track 1 accurately ripped (confidence 3) [BF64C999]Track 2 accurately ripped (confidence 4) [8C702726]Track 3 accurately ripped (confidence 4) [499BC1AB]Track 4 accurately ripped (confidence 4) [0FDB31D2]Track 5 accurately ripped (confidence 3) [91C46DCA]Track 6 accurately ripped (confidence 4) [ABDC680A]Track 7 accurately ripped (confidence 4) [888B0504]Track 8 accurately ripped (confidence 4) [36AA7D72]
All tracks accurately ripped
End of status report

1990 USA ATCO 36-151-2

Треклист:
01. Go Down (5:20)
02. Dog Eat Dog (3:37)
03. Let There Be Rock (6:06)
04. Bad Boy Boogie (4:29)
05. Problem Child (5:27)
06. Overdose (6:13)
07. Hell Ain't A Bad Place To Be (4:21)
08. Whole Lotta Rosie (5:20)
Продолжительность: 40:53

Лог создания рипа

Exact Audio Copy V0.99 prebeta 5 from 4. May 2009
EAC Auslese-Logdatei vom 13. Juli 2010, 17:16
AC/DC / Let There Be Rock
Benutztes Laufwerk : HL-DT-STDVD-ROM GDR-H30N Adapter: 0 ID: 1
Lesemodus : SicherBenutze Accurate Stream : JaAudio Puffer abgeschaltet : JaBenutze C2 Fehlerinformationen : Nein
Leseoffset Korrektur : 6Ьberlesen in das Lead-In und Lead-Out : NeinFьlle fehlende Offsetsample mit Stille auf : JaLцsche fьhrende und nachfolgende stille Blцcke : NeinNull Samples gehen in CRC Berechnungen ein : JaBenutzte Schnittstelle : Installierte externe ASPI Schnittstelle
Benutztes Ausgabeformat : Interne WAV RoutinenSampleformat : 44.100 Hz; 16 Bit; Stereo
TOC der ausgelesenen CD
Track | Start | Lдnge | Startsektor | Endsektor ------------------------------------------------------- 1 | 0:00.32 | 5:20.35 | 32 | 24066 2 | 5:20.67 | 3:37.25 | 24067 | 40366 3 | 8:58.17 | 6:05.53 | 40367 | 67794 4 | 15:03.70 | 4:29.30 | 67795 | 87999 5 | 19:33.25 | 5:26.45 | 88000 | 112494 6 | 24:59.70 | 6:12.45 | 112495 | 140439 7 | 31:12.40 | 4:21.12 | 140440 | 160026 8 | 35:33.52 | 5:19.58 | 160027 | 184009
Bereichsstatus und Fehler
Gewдhlter Bereich
Dateiname L:\Audi\acdis\Original Albums\1977 - Let There Be Rock\AC DC - Let There Be Rock.wav
Spitzenpegel 96.4 % Bereichsqualitдt 100.0 % Kopie CRC EFA03101 Kopie OK
Keine Fehler aufgetreten
AccurateRip Ьbersicht
Track 1 akkurat gelesen (Zuversicht 9) [FB013A70]Track 2 akkurat gelesen (Zuversicht 9) [93188DB6]Track 3 akkurat gelesen (Zuversicht 9) [3C7D4C6E]Track 4 akkurat gelesen (Zuversicht 9) [31E87268]Track 5 akkurat gelesen (Zuversicht 9) [8D28A8F0]Track 6 akkurat gelesen (Zuversicht 9) [55AA5EEA]Track 7 akkurat gelesen (Zuversicht 9) [2F7A7916]Track 8 akkurat gelesen (Zuversicht 9) [E9B40713]
Alle Tracks wurden akkurat gelesen
Ende des Statusreports

1994 Germany Remaster, ATCO 7567-92445-2

Треклист:
01. Go Down (5:31)
02. Dog Eat Dog (3:35)
03. Let There Be Rock (6:07)
04. Bad Boy Boogie (4:28)
05. Problem Child (5:25)
06. Overdose (6:09)
07. Hell Ain't A Bad Place To Be (4:14)
08. Whole Lotta Rosie (5:24)
Продолжительность: 40:53

Лог создания рипа

Exact Audio Copy V1.0 beta 1 from 15. November 2010
EAC extraction logfile from 20. March 2011, 16:04
AC-DC / Let There Be Rock
Used drive : PLEXTOR CD-R PREMIUM Adapter: 1 ID: 0
Read mode : SecureUtilize accurate stream : YesDefeat audio cache : YesMake use of C2 pointers : No
Read offset correction : 30Overread into Lead-In and Lead-Out : NoFill up missing offset samples with silence : YesDelete leading and trailing silent blocks : NoNull samples used in CRC calculations : YesUsed interface : Native Win32 interface for Win NT & 2000
Used output format : User Defined EncoderSelected bitrate : 1024 kBit/sQuality : HighAdd ID3 tag : NoCommand line compressor : C:\!tools\wavpack.exeAdditional command line options : -hlm %s
TOC of the extracted CD
Track | Start | Length | Start sector | End sector --------------------------------------------------------- 1 | 0:00.00 | 5:31.07 | 0 | 24831 2 | 5:31.07 | 3:35.08 | 24832 | 40964 3 | 9:06.15 | 6:06.42 | 40965 | 68456 4 | 15:12.57 | 4:27.48 | 68457 | 88529 5 | 19:40.30 | 5:24.72 | 88530 | 112901 6 | 25:05.27 | 6:09.18 | 112902 | 140594 7 | 31:14.45 | 4:14.22 | 140595 | 159666 8 | 35:28.67 | 5:23.50 | 159667 | 183941
Range status and errors
Selected range
Filename D:\CB_RAB\AC-DC - 1977 - Let There Be Rock\AC-DC - Let There Be Rock.wav
Peak level 100.0 % Extraction speed 0.8 X Range quality 100.0 % Test CRC BB4DBDF3 Copy CRC BB4DBDF3 Copy OK
No errors occurred
AccurateRip summary
Track 1 accurately ripped (confidence 2) [FE6CEAE7]Track 2 accurately ripped (confidence 2) [4029DCB9]Track 3 accurately ripped (confidence 2) [D307DD0D]Track 4 accurately ripped (confidence 2) [E662CAE9]Track 5 accurately ripped (confidence 2) [775B848E]Track 6 accurately ripped (confidence 2) [0E45608A]Track 7 accurately ripped (confidence 2) [7ADF98E7]Track 8 accurately ripped (confidence 70) [0C5BF16E]
All tracks accurately ripped
End of status report
==== Log checksum A7EDE0B01ED36F49B5EF29E237BE55CEDD62596FD3259BAF86F1D3073AE6B666 ====

1978 - Powerage

1987 Japan for Australia, Albert/EMI CDP 748734 2

Треклист:
01. Rock 'N' Roll Damnation (3:40)
02. Down Payment Blues (6:06)
03. Gimme A Bullet (3:24)
04. Riff Raff (5:15)
05. Sin City (4:45)
06. What's Next To The Moon (3:34)
07. Gone Shootin' (5:04)
08. Up To My Neck In You (4:15)
09. Kicked In The Teeth (3:54)
Продолжительность: 39:57

Лог создания рипа

Exact Audio Copy V1.0 beta 3 from 29. August 2011
EAC extraction logfile from 26. January 2015, 12:51
AC-DC / Powerage (Albert CDP 748734 2)
Used drive : PLEXTOR DVDR PX-760A Adapter: 1 ID: 0
Read mode : SecureUtilize accurate stream : YesDefeat audio cache : YesMake use of C2 pointers : No
Read offset correction : 30Overread into Lead-In and Lead-Out : NoFill up missing offset samples with silence : YesDelete leading and trailing silent blocks : NoNull samples used in CRC calculations : YesUsed interface : Native Win32 interface for Win NT & 2000
Used output format : User Defined EncoderSelected bitrate : 1024 kBit/sQuality : HighAdd ID3 tag : NoCommand line compressor : C:\Program Files (x86)\Exact Audio Copy\Flac\flac.exeAdditional command line options : -V -8 -T "Date=%year%" -T "Genre=%genre%" %source%
TOC of the extracted CD
Track | Start | Length | Start sector | End sector --------------------------------------------------------- 1 | 0:00.00 | 3:39.47 | 0 | 16471 2 | 3:39.47 | 6:06.13 | 16472 | 43934 3 | 9:45.60 | 3:24.17 | 43935 | 59251 4 | 13:10.02 | 5:14.48 | 59252 | 82849 5 | 18:24.50 | 4:45.02 | 82850 | 104226 6 | 23:09.52 | 3:34.00 | 104227 | 120276 7 | 26:43.52 | 5:04.05 | 120277 | 143081 8 | 31:47.57 | 4:14.50 | 143082 | 162181 9 | 36:02.32 | 3:54.30 | 162182 | 179761
Range status and errors
Selected range
Filename F:\bki71\AC-DC\AC-DC - Powerage (Albert CDP 748734 2).wav
Peak level 100.0 % Extraction speed 2.5 X Range quality 100.0 % Test CRC 51DD7A23 Copy CRC 51DD7A23 Copy OK
No errors occurred
AccurateRip summary
Track 1 accurately ripped (confidence 4) [28458EB4] (AR v2)Track 2 accurately ripped (confidence 4) [4550326C] (AR v2)Track 3 accurately ripped (confidence 4) [48C720EA] (AR v2)Track 4 accurately ripped (confidence 4) [3571351A] (AR v2)Track 5 accurately ripped (confidence 4) [2DF0FF90] (AR v2)Track 6 accurately ripped (confidence 4) [D68814F6] (AR v2)Track 7 accurately ripped (confidence 4) [28AD8A6A] (AR v2)Track 8 accurately ripped (confidence 4) [81B21146] (AR v2)Track 9 accurately ripped (confidence 4) [D61196B7] (AR v2)
All tracks accurately ripped
End of status report
==== Log checksum 9E4DD90D710EA9E6767DABF9A5EC59B51703CAD2B082278E6BA772E413ECDE8C ====

1988 USA Atlantic 19180-2

Треклист:
01. Rock 'N' Roll Damnation (3:39)
02. Down Payment Blues (6:07)
03. Gimme A Bullet (3:23)
04. Riff Raff (5:15)
05. Sin City (4:46)
06. What's Next To The Moon (3:34)
07. Gone Shootin' (5:00)
08. Up To My Neck In You (4:15)
09. Kicked In The Teeth (3:54)
Продолжительность: 39:53

Лог создания рипа

Exact Audio Copy V0.99 prebeta 5 from 4. May 2009
EAC Auslese-Logdatei vom 16. Juli 2010, 0:09
AC DC / Powerage
Benutztes Laufwerk : HL-DT-STDVD-ROM GDR-H30N Adapter: 0 ID: 1
Lesemodus : SicherBenutze Accurate Stream : JaAudio Puffer abgeschaltet : JaBenutze C2 Fehlerinformationen : Nein
Leseoffset Korrektur : 6Ьberlesen in das Lead-In und Lead-Out : NeinFьlle fehlende Offsetsample mit Stille auf : JaLцsche fьhrende und nachfolgende stille Blцcke : NeinNull Samples gehen in CRC Berechnungen ein : JaBenutzte Schnittstelle : Installierte externe ASPI Schnittstelle
Benutztes Ausgabeformat : Interne WAV RoutinenSampleformat : 44.100 Hz; 16 Bit; Stereo
TOC der ausgelesenen CD
Track | Start | Lдnge | Startsektor | Endsektor ------------------------------------------------------- 1 | 0:00.32 | 3:39.15 | 32 | 16471 2 | 3:39.47 | 6:06.63 | 16472 | 43984 3 | 9:46.35 | 3:23.25 | 43985 | 59234 4 | 13:09.60 | 5:14.55 | 59235 | 82839 5 | 18:24.40 | 4:46.27 | 82840 | 104316 6 | 23:10.67 | 3:33.50 | 104317 | 120341 7 | 26:44.42 | 5:00.25 | 120342 | 142866 8 | 31:44.67 | 4:15.25 | 142867 | 162016 9 | 36:00.17 | 3:53.43 | 162017 | 179534
Bereichsstatus und Fehler
Gewдhlter Bereich
Dateiname L:\Audi\acdis\Original Albums\1978 - Powerage (Atlantic 19180-2)\AC DC - Powerage.wav
Spitzenpegel 100.0 % Bereichsqualitдt 100.0 % Kopie CRC E9B68361 Kopie OK
Keine Fehler aufgetreten
AccurateRip Ьbersicht
Track 1 akkurat gelesen (Zuversicht 19) [59A78942]Track 2 akkurat gelesen (Zuversicht 19) [B842F233]Track 3 akkurat gelesen (Zuversicht 19) [460CA202]Track 4 akkurat gelesen (Zuversicht 19) [4F3A6707]Track 5 akkurat gelesen (Zuversicht 19) [81DB4E96]Track 6 akkurat gelesen (Zuversicht 18) [54A41DC1]Track 7 akkurat gelesen (Zuversicht 19) [2DEB18E5]Track 8 akkurat gelesen (Zuversicht 18) [904A31DE]Track 9 akkurat gelesen (Zuversicht 16) [F7FA232D]
Alle Tracks wurden akkurat gelesen
Ende des Statusreports

1989 Australia Albert/CBS 465260 2

Треклист:
01. Rock 'N' Roll Damnation (3:40)
02. Down Payment Blues (6:07)
03. Gimme A Bullet (3:25)
04. Riff Raff (5:15)
05. Sin City (4:46)
06. Next To The Moon (3:36)
07. Gone Shootin' (5:10)
08. Up To My Neck In You (4:15)
09. Kicked In The Teeth (3:56)
Продолжительность: 40:09

Лог создания рипа

Exact Audio Copy V1.0 beta 3 from 29. August 2011
EAC extraction logfile from 23. January 2015, 14:17
AC-DC / Powerage (Albert 465260 2)
Used drive : PIONEER DVD-RW DVR-215 Adapter: 0 ID: 0
Read mode : SecureUtilize accurate stream : YesDefeat audio cache : YesMake use of C2 pointers : No
Read offset correction : 48Overread into Lead-In and Lead-Out : NoFill up missing offset samples with silence : YesDelete leading and trailing silent blocks : NoNull samples used in CRC calculations : YesUsed interface : Native Win32 interface for Win NT & 2000
Used output format : User Defined EncoderSelected bitrate : 1024 kBit/sQuality : HighAdd ID3 tag : NoCommand line compressor : C:\Program Files (x86)\Exact Audio Copy\Flac\flac.exeAdditional command line options : -V -8 -T "Date=%year%" -T "Genre=%genre%" %source%
TOC of the extracted CD
Track | Start | Length | Start sector | End sector --------------------------------------------------------- 1 | 0:00.00 | 3:39.45 | 0 | 16469 2 | 3:39.45 | 6:06.67 | 16470 | 43986 3 | 9:46.37 | 3:24.50 | 43987 | 59336 4 | 13:11.12 | 5:14.55 | 59337 | 82941 5 | 18:25.67 | 4:46.03 | 82942 | 104394 6 | 23:11.70 | 3:35.72 | 104395 | 120591 7 | 26:47.67 | 5:10.20 | 120592 | 143861 8 | 31:58.12 | 4:15.30 | 143862 | 163016 9 | 36:13.42 | 3:55.48 | 163017 | 180689
Range status and errors
Selected range
Filename F:\bki71\AC-DC\AC-DC - Powerage (Albert 465260 2).wav
Peak level 100.0 % Extraction speed 7.1 X Range quality 100.0 % Test CRC 1D057AFB Copy CRC 1D057AFB Copy OK
No errors occurred
AccurateRip summary
Track 1 accurately ripped (confidence 6) [B3A7D7CD] (AR v2)Track 2 accurately ripped (confidence 6) [BADA9927] (AR v2)Track 3 accurately ripped (confidence 6) [9CFADB59] (AR v2)Track 4 accurately ripped (confidence 6) [BABD8155] (AR v2)Track 5 accurately ripped (confidence 6) [2DF9512B] (AR v2)Track 6 accurately ripped (confidence 6) [4CD820D7] (AR v2)Track 7 accurately ripped (confidence 6) [16A3D545] (AR v2)Track 8 accurately ripped (confidence 6) [474EF3D7] (AR v2)Track 9 accurately ripped (confidence 6) [6046990B] (AR v2)
All tracks accurately ripped
End of status report
==== Log checksum 8C041588BD51E514AF6E13EE85E722D9A21EE6057306859C8B579087810C7593 ====

1989 Germany Atlantic 7567-81548-2

Треклист:
01. Rock'n'Roll Damnation (3:40)
02. Down Payment Blues (6:07)
03. Gimme A Bullet (3:23)
04. Riff Raff (5:15)
05. Sin City (4:46)
06. What's Next To The Moon (3:34)
07. Gone Shootin' (5:00)
08. Up To My Neck In You (4:15)
09. Kicked in The Teeth (3:54)
Продолжительность: 39:55

Лог создания рипа

Exact Audio Copy V0.99 prebeta 4 from 23. January 2008
EAC Auslese-Logdatei vom 19. September 2009, 18:48
AC-DC / Powerage
Benutztes Laufwerk : HL-DT-STDVD-ROM GDR-H30N Adapter: 0 ID: 1
Lesemodus : SicherBenutze Accurate Stream : JaAudio Puffer abgeschaltet : JaBenutze C2 Fehlerinformationen : Nein
Leseoffset Korrektur : 6Ьberlesen in das Lead-In und Lead-Out : NeinFьlle fehlende Offsetsample mit Stille auf : JaLцsche fьhrende und nachfolgende stille Blцcke : NeinNull Samples gehen in CRC Berechnungen ein : JaBenutzte Schnittstelle : Installierte externe ASPI Schnittstelle
Benutztes Ausgabeformat : Interne WAV RoutinenSampleformat : 44.100 Hz; 16 Bit; Stereo
TOC der ausgelesenen CD
Track | Start | Lдnge | Startsektor | Endsektor ------------------------------------------------------- 1 | 0:00.00 | 3:39.72 | 0 | 16496 2 | 3:39.72 | 6:06.63 | 16497 | 44009 3 | 9:46.60 | 3:23.25 | 44010 | 59259 4 | 13:10.10 | 5:14.55 | 59260 | 82864 5 | 18:24.65 | 4:46.27 | 82865 | 104341 6 | 23:11.17 | 3:33.48 | 104342 | 120364 7 | 26:44.65 | 5:00.25 | 120365 | 142889 8 | 31:45.15 | 4:15.27 | 142890 | 162041 9 | 36:00.42 | 3:54.28 | 162042 | 179619
Bereichsstatus und Fehler
Gewдhlter Bereich
Dateiname K:\AC-DC - Unremastered Albums\1978 - Powerage\AC-DC - Powerage.wav
Spitzenpegel 100.0 % Bereichsqualitдt 100.0 % Kopie CRC 5BAEA458 Kopie OK
Keine Fehler aufgetreten
AccurateRip Ьbersicht
Track 1 akkurat gelesen (Zuversicht 35) [176517E8]Track 2 akkurat gelesen (Zuversicht 36) [39360122]Track 3 akkurat gelesen (Zuversicht 37) [068B98F6]Track 4 akkurat gelesen (Zuversicht 36) [2FB63AC0]Track 5 akkurat gelesen (Zuversicht 36) [CEF75A10]Track 6 akkurat gelesen (Zuversicht 37) [142B05A8]Track 7 akkurat gelesen (Zuversicht 35) [3C9CDD26]Track 8 akkurat gelesen (Zuversicht 36) [54C62705]Track 9 akkurat gelesen (Zuversicht 36) [E3F18741]
Alle Tracks wurden akkurat gelesen
Ende des Statusreports

1992 Australia Albert/Sony 465260 2

Треклист:
01. Rock 'N' Roll Damnation (3:40)
02. Down Payment Blues (6:07)
03. Gimme A Bullet (3:25)
04. Riff Raff (5:15)
05. Sin City (4:46)
06. Next To The Moon (3:36)
07. Gone Shootin' (5:10)
08. Up To My Neck In You (4:15)
09. Kicked In The Teeth (3:56)
Продолжительность: 40:09

Лог создания рипа

Exact Audio Copy V0.99 prebeta 4 from 23. January 2008
EAC extraction logfile from 19. May 2011, 16:04
AC-DC / Powerage (Albert 465260 2)
Used drive : PLEXTOR DVDR PX-760A Adapter: 0 ID: 0
Read mode : SecureUtilize accurate stream : YesDefeat audio cache : YesMake use of C2 pointers : No
Read offset correction : 30Overread into Lead-In and Lead-Out : NoFill up missing offset samples with silence : YesDelete leading and trailing silent blocks : NoNull samples used in CRC calculations : YesUsed interface : Installed external ASPI interface
Used output format : Internal WAV RoutinesSample format : 44.100 Hz; 16 Bit; Stereo
TOC of the extracted CD
Track | Start | Length | Start sector | End sector --------------------------------------------------------- 1 | 0:00.00 | 3:39.45 | 0 | 16469 2 | 3:39.45 | 6:06.67 | 16470 | 43986 3 | 9:46.37 | 3:24.50 | 43987 | 59336 4 | 13:11.12 | 5:14.55 | 59337 | 82941 5 | 18:25.67 | 4:46.03 | 82942 | 104394 6 | 23:11.70 | 3:35.72 | 104395 | 120591 7 | 26:47.67 | 5:10.20 | 120592 | 143861 8 | 31:58.12 | 4:15.30 | 143862 | 163016 9 | 36:13.42 | 3:55.48 | 163017 | 180689
Range status and errors
Selected range
Filename D:\bki71\AC-DC - Powerage (Albert 465260 2).wav
Peak level 100.0 % Range quality 100.0 % Test CRC 7D610D96 Copy CRC 7D610D96 Copy OK
No errors occurred
AccurateRip summary
Track 1 accurately ripped (confidence 2) [4CBC9C19]Track 2 accurately ripped (confidence 2) [31F18C8B]Track 3 accurately ripped (confidence 2) [214C3C79]Track 4 accurately ripped (confidence 2) [80FBFA5F]Track 5 accurately ripped (confidence 2) [A96B49D8]Track 6 accurately ripped (confidence 2) [0FE9F3AA]Track 7 accurately ripped (confidence 2) [B43E798A]Track 8 accurately ripped (confidence 2) [DE3E6782]Track 9 accurately ripped (confidence 2) [469C59C2]
All tracks accurately ripped
End of status report

1994 Germany Remaster, ATCO 7567-92446-2

Треклист:
01. Rock 'N' Roll Damnation (3:37)
02. Down Payment Blues (6:04)
03. Gimme A Bullet (3:22)
04. Riff Raff (5:12)
05. Sin City (4:45)
06. What's Next To The Moon (3:32)
07. Gone Shootin' (5:06)
08. Up To My Neck In You (4:14)
09. Kicked In The Teeth (3:54)
Продолжительность: 39:45

Лог создания рипа

Exact Audio Copy V1.0 beta 1 from 15. November 2010
EAC extraction logfile from 20. March 2011, 17:28
AC-DC / Powerage
Used drive : PLEXTOR CD-R PREMIUM Adapter: 1 ID: 0
Read mode : SecureUtilize accurate stream : YesDefeat audio cache : YesMake use of C2 pointers : No
Read offset correction : 30Overread into Lead-In and Lead-Out : NoFill up missing offset samples with silence : YesDelete leading and trailing silent blocks : NoNull samples used in CRC calculations : YesUsed interface : Native Win32 interface for Win NT & 2000
Used output format : User Defined EncoderSelected bitrate : 1024 kBit/sQuality : HighAdd ID3 tag : NoCommand line compressor : C:\!tools\wavpack.exeAdditional command line options : -hlm %s
TOC of the extracted CD
Track | Start | Length | Start sector | End sector --------------------------------------------------------- 1 | 0:00.00 | 3:37.32 | 0 | 16306 2 | 3:37.32 | 6:03.58 | 16307 | 43589 3 | 9:41.15 | 3:21.57 | 43590 | 58721 4 | 13:02.72 | 5:12.20 | 58722 | 82141 5 | 18:15.17 | 4:45.13 | 82142 | 103529 6 | 23:00.30 | 3:32.00 | 103530 | 119429 7 | 26:32.30 | 5:05.57 | 119430 | 142361 8 | 31:38.12 | 4:13.43 | 142362 | 161379 9 | 35:51.55 | 3:53.50 | 161380 | 178904
Range status and errors
Selected range
Filename D:\CB_RAB\AC-DC - 1978 - Powerage\AC-DC - Powerage.wav
Peak level 100.0 % Extraction speed 0.5 X Range quality 100.0 % Test CRC 0D38EBC4 Copy CRC 0D38EBC4 Copy OK
No errors occurred
AccurateRip summary
Track 1 accurately ripped (confidence 3) [D8F995DF]Track 2 accurately ripped (confidence 3) [67CBB6E0]Track 3 accurately ripped (confidence 3) [C5A27402]Track 4 accurately ripped (confidence 3) [99258CAA]Track 5 accurately ripped (confidence 3) [08065718]Track 6 accurately ripped (confidence 3) [BB0F6E93]Track 7 accurately ripped (confidence 3) [805525B7]Track 8 accurately ripped (confidence 3) [A0961E94]Track 9 accurately ripped (confidence 3) [460C2F95]
All tracks accurately ripped
End of status report
==== Log checksum 93B77FBB35B561745F55A0AE32844109ACE9C32A217DEDF6E57712A02FA5A51A ====

1995 Australia Remaster, Albert/EMI 4770862

Треклист:
01. Rock 'N' Roll Damnation (3:37)
02. Down Payment Blues (6:04)
03. Gimme A Bullet (3:22)
04. Riff Raff (5:12)
05. Sin City (4:45)
06. What's Next To The Moon (3:32)
07. Gone Shootin' (5:06)
08. Up To My Neck In You (4:14)
09. Kicked In The Teeth (3:54)
Продолжительность: 39:45

Лог создания рипа

Exact Audio Copy V0.99 prebeta 5 from 4. May 2009
EAC Auslese-Logdatei vom 14. Juni 2010, 16:29
AC-DC / Powerage
Benutztes Laufwerk : HL-DT-STDVD-ROM GDR-H30N Adapter: 0 ID: 1
Lesemodus : SicherBenutze Accurate Stream : JaAudio Puffer abgeschaltet : JaBenutze C2 Fehlerinformationen : Nein
Leseoffset Korrektur : 6Ьberlesen in das Lead-In und Lead-Out : NeinFьlle fehlende Offsetsample mit Stille auf : JaLцsche fьhrende und nachfolgende stille Blцcke : NeinNull Samples gehen in CRC Berechnungen ein : JaBenutzte Schnittstelle : Installierte externe ASPI Schnittstelle
Benutztes Ausgabeformat : Interne WAV RoutinenSampleformat : 44.100 Hz; 16 Bit; Stereo
TOC der ausgelesenen CD
Track | Start | Lдnge | Startsektor | Endsektor ------------------------------------------------------- 1 | 0:00.00 | 3:37.12 | 0 | 16286 2 | 3:37.12 | 6:03.73 | 16287 | 43584 3 | 9:41.10 | 3:21.57 | 43585 | 58716 4 | 13:02.67 | 5:12.15 | 58717 | 82131 5 | 18:15.07 | 4:45.30 | 82132 | 103536 6 | 23:00.37 | 3:31.63 | 103537 | 119424 7 | 26:32.25 | 5:05.60 | 119425 | 142359 8 | 31:38.10 | 4:13.45 | 142360 | 161379 9 | 35:51.55 | 3:53.45 | 161380 | 178899
Bereichsstatus und Fehler
Gewдhlter Bereich
Dateiname K:\Audi\ACDC\1995 Australian Edition\1978 - Powerage\AC-DC - Powerage.wav
Spitzenpegel 100.0 % Bereichsqualitдt 100.0 % Kopie CRC 05B9A4A3 Kopie OK
Keine Fehler aufgetreten
AccurateRip Ьbersicht
Track 1 akkurat gelesen (Zuversicht 7) [D1CDA9FF]Track 2 akkurat gelesen (Zuversicht 8) [445E54D9]Track 3 akkurat gelesen (Zuversicht 7) [705A8F76]Track 4 akkurat gelesen (Zuversicht 7) [1B18EFCB]Track 5 akkurat gelesen (Zuversicht 7) [AA1C8C95]Track 6 akkurat gelesen (Zuversicht 7) [33112C9E]Track 7 akkurat gelesen (Zuversicht 6) [9CE67B90]Track 8 akkurat gelesen (Zuversicht 7) [97AEED73]Track 9 akkurat gelesen (Zuversicht 6) [12815CD9]
Alle Tracks wurden akkurat gelesen
Ende des Statusreports
Other forum [Profile] [PM]

Dracula

Longevity: 7 years 8 months

Posts: 11289

Торрент-статистика

Post 04-Feb-2015 09:33 (after 4 minutes)

Топик был перенесен из форума Rock в форум Rock


RUGUI
 
Similar theme
Forum Topic Author Torrent Replies Last Post
./templates/default/images/folder_dl.gif Rock (hard rock) Scorpions - Hot & Slow (The Best Of The Ballads) - 1991, FLAC (image+.cue), lossless Omen
1 | 0

0 | 2130

2

2014-03-24 11:00
Omen Latest
./templates/default/images/folder_dl.gif Rock (Hard Rock) [CD] Uriah Heep - Romantic Ballads - 1998, FLAC (tracks+.cue), lossless Omen
1 | 0

0 | 812

0

2015-02-21 03:00
Omen Latest
./templates/default/images/folder_dl.gif Rock (Hard Rock) [WEB] Hollywood Undead - Swan Songs [Collector’s Edition] - 2008, FLAC (tracks), lossless Omen
0 | 1

0 | 3288

0

2015-04-13 18:14
Omen Latest
./templates/default/images/folder_dl.gif Rock (Hard Rock) [CD] Slash (feat. Myles Kennedy & The Conspirators) - Live at the Roxy 09.25.14 (2CD) - 2015, FLAC (tracks+.cue), lossless Omen
1 | 0

0 | 2588

21

2015-08-30 06:18
Omen Latest
./templates/default/images/folder_dl.gif Rock (Hard Rock) Nevada Beach - Read It On The Wall - 2016, MP3, 320 kbps Omen
0 | 1

0 | 1312

5

2016-01-14 00:03
Omen Latest
./templates/default/images/folder_dl.gif Rock (Hard Rock/ Ballads) Scorpions - Best Ballads (2CD) - 2012, FLAC (image+.cue), lossless Omen
1 | 0

0 | 744

0

2016-01-26 00:06
Omen Latest
./templates/default/images/folder_dl.gif Rock (Hard Rock) AC-DC (ACDC) - Power Up (Box Set) - 2020 [FLAC, image +.cue, lossless] sergej644
1 | 0

0 | 705

0

2020-11-14 20:53
sergej644 Latest
Display posts from previous:    
Reply to topic

The time now is: Today 11:58

All times are GMT + 3 Hours



You cannot post new topics in this forum
You cannot reply to topics in this forum
You cannot edit your posts in this forum
You cannot delete your posts in this forum
You cannot vote in polls in this forum
You cannot attach files in this forum
You cannot download files in this forum