Сегодня идет свободное скачивание без начисления Download

Грязные деньги и любовь / Kara para ask (2014) HDTVRip (сезон 1-2, серия 1-33 из 40) (turok1990)

Ответить на тему
 
Автор
Сообщение

SmartSoft ®

Пол:

Стаж: 4 года 3 месяца

Сообщений: 424

Торрент-статистика

Пост 03-Фев-2015 22:59

[Цитировать]

Грязные деньги и любовь / Kara para ask (2014) HDTVRip- Производство: Турция, Телекомпания «Ay Yapım»
Жанр: драма, мелодрама, криминал
Перевод: Одноголосый закадровый, любительский - turok1990

Дата мировой премьеры: 12 марта 2014
Режиссер: Ахмет Катиксиз
Актеры: Туба Буйукустун, Энгин Акюрек, Небахат Чехре, Айтач Арман, Эркан Кан, Эмре Кизилирмак, Сайгын Сойсал, Бурак Тамдоган
Описание фильма:
Главный герой, Омер (Энгин) - работает в полиции в отделе по борьбе с организованной преступностью. Главная героиня, Элиф (Туба) - дочь из очень богатой семьи, сама она - очень успешный дизайнер ювелирных украшений, живёт за границей. Однажды их пути пересекутся ... из-за одного убийства. Их жизни уже не будут прежними. Любимая Омера убита, а отец Элиф оказался главой мафии, отмывающий грязные деньги. В этой истории люди окажутся под влияниям блеска денег, любви, правды, тайн, жадности. Вы увидите историю любви, которую не купишь ни за какие грязные деньги...
Продолжительность: ~ 02:00:00 серия
Качество видео: HDTVRip
СЭМПЛ
Видеокодек: Xvid
Битрейт видео: ~1673 Кбит/с
Размер кадра: 720x400 (16:9)
Аудио : MPEG Layer 3, 44,1 kHz, 2 ch, 192 kb/s

MediaInfo

Формат : AVI
Формат/Информация : Audio Video Interleave
Размер файла : 1,63 Гбайт
Продолжительность : 2 ч. 4 м.
Общий поток : 1875 Кбит/сек
Видео
Идентификатор : 0
Формат : MPEG-4 Visual
Профиль формата : Advanced Simple@L5
Параметр BVOP формата : 2
Параметр QPel формата : Нет
Параметр GMC формата : Без точки перехода
Параметр матрицы формата : Default (H.263)
Идентификатор кодека : XVID
Идентификатор кодека/Подсказка : XviD
Продолжительность : 2 ч. 4 м.
Битрейт : 1673 Кбит/сек
Ширина : 720 пикселей
Высота : 400 пикселей
Соотношение сторон : 16:9
Частота кадров : 25,000 кадров/сек
Цветовое пространство : YUV
Субдискретизация насыщенности : 4:2:0
Битовая глубина : 8 бит
Тип развёртки : Прогрессивная
Метод сжатия : С потерями
Бит/(Пиксели*Кадры) : 0.232
Размер потока : 1,46 Гбайт (89%)
Библиотека кодирования : XviD 64
Аудио
Идентификатор : 1
Формат : MPEG Audio
Версия формата : Version 1
Профиль формата : Layer 3
Режим : Joint stereo
Расширение режима : MS Stereo
Идентификатор кодека : 55
Идентификатор кодека/Подсказка : MP3
Продолжительность : 2 ч. 4 м.
Вид битрейта : Постоянный
Битрейт : 192 Кбит/сек
Каналы : 2 канала
Частота : 44,1 КГц
Метод сжатия : С потерями
Размер потока : 171 Мбайт (10%)
Выравнивание : Разделение по промежуткам
Продолжительность промежутка : 40 мс. (1,00 видеокадр)
Время предзагрузки промежутка : 500 мс.
Библиотека кодирования : LAME
Скриншоты:
       

_________________
Подпись отключена за нарушение правил форума
Вне форума [Профиль] [ЛС]

Dracula

Стаж: 4 года 8 месяцев

Сообщений: 10915

Торрент-статистика

Пост 03-Фев-2015 23:08 (спустя 8 минут)

Топик был перенесен из форума Фильмы 2012-2014 в форум Зарубежные сериалы


kogesan
 
Показать сообщения:    
Ответить на тему

Текущее время: Сегодня 13:48

Часовой пояс: GMT + 3



Вы не можете начинать темы
Вы не можете отвечать на сообщения
Вы не можете редактировать свои сообщения
Вы не можете удалять свои сообщения
Вы не можете голосовать в опросах
Вы не можете прикреплять файлы к сообщениям
Вы не можете скачивать файлы