Today is a free download without charge Download

Игра престолов / Game of Thrones [5 сезон] (2015) WEBRip [1080p] [Трейлер] [EN]

Reply to topic
 
Author
Message

Varius ®

Gender:

Longevity: 9 years 8 months

Posts: 2418

Location: Hell

Торрент-статистика

Post 02-Feb-2015 05:29

[Quote]

Игра престолов / Game of Thrones [5 сезон] (2015) WEBRip - Производство: США, Великобритания | Home Box Office (HBO), Television 360, Grok! Studio
Жанр: Фэнтези, Приключения
Режиссер: Алан Тейлор, Дэвид Наттер, Алекс Грейвз
Актеры: Питер Динклэйдж, Лина Хиди, Эмилия Кларк, Кит Харингтон, Николай Костер-Вальдау, Мэйси Уильямс, Софи Тернер, Айзек Хемпстед-Райт, Шон Бин
Описание фильма: К концу подходит время благоденствия, и лето, длившееся почти десятилетие, угасает. Вокруг средоточия власти Семи королевств, Железного трона, зреет заговор, и в это непростое время король решает искать поддержки у друга юности Эддарда Старка. В мире, где все — от короля до наемника — рвутся к власти, плетут интриги и готовы вонзить нож в спину, есть место и благородству, состраданию и любви. Между тем, никто не замечает пробуждение тьмы из легенд далеко на Севере — и лишь Стена защищает живых к югу от нее
Язык: Английский
Перевод: Отсутствует- -Дата мировой премьеры: 12 апреля 2015
Дата российской премьеры: -/-
Продолжительность: 00:02:05
Качество видео: WEBRip [1080p]
Видеокодек: MPEG-4 AVC
Битрейт видео: ~18.0 Mbps
Размер кадра: 1920х1080
Аудио: (Английский) 48,0 kHz, АС3 5.1, ~448 Kbps, CBR

MediaInfo

Код:
General
Unique ID                   : 193070801209895478560216915045638386086 (0x914015703A192DBEA31A21C71236B1A6)
Complete name               : F:\Game.of.Thrones_S5_Trailer.mkv
Format                      : Matroska
Format version              : Version 4 / Version 2
File size                   : 263 MiB
Duration                    : 2mn 5s
Overall bit rate            : 17.6 Mbps
Movie name                  : 10152715877082734
Encoded date                : UTC 2015-02-01 07:58:20
Writing application         : mkvmerge v7.5.0 ('Glass Culture') 64bit built on Jan  4 2015 16:48:44
Writing library             : Lavf55.37.101
Attachements                : cover.png
Video
ID                          : 1
Format                      : AVC
Format/Info                 : Advanced Video Codec
Format profile              : [url=mailto:Baseline@L4.1]Baseline@L4.1[/url]
Format settings, CABAC      : No
Format settings, ReFrames   : 1 frame
Codec ID                    : V_MPEG4/ISO/AVC
Duration                    : 2mn 5s
Bit rate                    : 16.8 Mbps
Nominal bit rate            : 18.0 Mbps
Width                       : 1 920 pixels
Height                      : 1 080 pixels
Display aspect ratio        : 16:9
Frame rate mode             : Constant
Frame rate                  : 23.976 fps
Color space                 : YUV
Chroma subsampling          : 4:2:0
Bit depth                   : 8 bits
Scan type                   : Progressive
Bits/(Pixel*Frame)          : 0.337
Stream size                 : 251 MiB (95%)
Writing library             : x264 core 119
Encoding settings           : cabac=0 / ref=1 / deblock=0:0:0 / analyse=0:0 / me=dia / subme=0 / psy=1 / psy_rd=1.00:0.00 / mixed_ref=0 / me_range=16 / chroma_me=1 / trellis=0 / 8x8dct=0 / cqm=0 / deadzone=21,11 / fast_pskip=1 / chroma_qp_offset=0 / threads=4 / sliced_threads=0 / nr=0 / decimate=1 / interlaced=0 / bluray_compat=0 / constrained_intra=0 / bframes=0 / weightp=0 / keyint=250 / keyint_min=23 / scenecut=0 / intra_refresh=0 / rc=abr / mbtree=0 / bitrate=18000 / ratetol=1.0 / qcomp=0.60 / qpmin=0 / qpmax=69 / qpstep=4 / ip_ratio=1.40 / aq=0
Language                    : English
Default                     : Yes
Forced                      : No
HANDLER_NAME                : VideoHandler
DURATION                    : 00:02:05.188000000
NUMBER_OF_FRAMES            : 3002
NUMBER_OF_BYTES             : 268248824
_STATISTICS_WRITING_APP     : mkvmerge v7.5.0 ('Glass Culture') 64bit built on Jan  4 2015 16:48:44
_STATISTICS_WRITING_DATE_UT : 2015-02-01 07:58:20
_STATISTICS_TAGS            : BPS DURATION NUMBER_OF_FRAMES NUMBER_OF_BYTES
Audio
ID                          : 2
Format                      : AC-3
Format/Info                 : Audio Coding 3
Mode extension              : CM (complete main)
Format settings, Endianness : Big
Codec ID                    : A_AC3
Duration                    : 2mn 5s
Bit rate mode               : Constant
Bit rate                    : 448 Kbps
Channel(s)                  : 6 channels
Channel positions           : Front: L C R, Side: L R, LFE
Sampling rate               : 48.0 KHz
Bit depth                   : 16 bits
Compression mode            : Lossy
Delay relative to video     : -172ms
Stream size                 : 6.69 MiB (3%)
Language                    : English
Default                     : Yes
Forced                      : No
HANDLER_NAME                : SoundHandler
DURATION                    : 00:02:05.344000000
NUMBER_OF_FRAMES            : 3917
NUMBER_OF_BYTES             : 7019264
_STATISTICS_WRITING_APP     : mkvmerge v7.5.0 ('Glass Culture') 64bit built on Jan  4 2015 16:48:44
_STATISTICS_WRITING_DATE_UT : 2015-02-01 07:58:20
_STATISTICS_TAGS            : BPS DURATION NUMBER_OF_FRAMES NUMBER_OF_BYTES
Скриншоты:-        -

_________________

Создавая "Новую папку", не считайте себя Создателем - это право Вам дано Админом


Other forum [Profile] [PM]
Display posts from previous:    
Reply to topic

The time now is: Today 22:32

All times are GMT + 3 Hours



You cannot post new topics in this forum
You cannot reply to topics in this forum
You cannot edit your posts in this forum
You cannot delete your posts in this forum
You cannot vote in polls in this forum
You cannot attach files in this forum
You cannot download files in this forum