Сегодня идет свободное скачивание без начисления Download

Трансформеры: Прайм (сезон 1, серии 26 из 26) / Transformers Prime (2010) WEB-DLRip

Ответить на тему
 
Автор
Сообщение

Varius ®

Пол:

Стаж: 7 лет 7 месяцев

Сообщений: 3280

Откуда: Hell

Торрент-статистика

Пост 29-Фев-2012 14:14

[Цитировать]

Трансформеры: Прайм / Transformers Prime (2010) WEB-DLRip- Русское название: Трансформеры: Прайм
Оригинальное название: Transformers: Prime
Производство: США, Япония
Год выпуска: 2010
Коллическво серий: 26
Жанр: мультфильм, фантастика, боевик, приключения
Описание:
Уверенные, что опасность миновала, автоботы, тем не менее, оставляют на Земле небольшую группу защитников под руководством Оптимуса Прайма. Предосторожность оказывается не напрасной — три года спустя Мегатрон объявляется снова и приносит с собой Тёмный Энергон, с помощью которого рассчитывает отомстить за прошлое поражение. Автоботы опять вынуждены взяться за оружие. Они подружились с несколькими земными подростками, и теперь команда роботов и людей сражается, чтобы защитить Землю от десептиконов.

Режиссер: Дэвид Хартман, Тодд Ватерман, Винтон Хёк
Персонажи: Оптимус Прайм, Арси, Бамблби, Балкхэд, Рэтчет, Раф, Мико, агент Фаулер, Джек, Мегатрон, Старскрим, Саундвэйв
Продолжительность: 26 x ~ 00:22:00
Перевод: Дублированный
Автор перевода: т/к Карусель
Видеокодек: Xvid
Битрейт видео: ~1138 Kb/s
Размер кадра: 656x368
Качество видео: WEB-DLRip
Аудиокодек: MP3 2ch
Битрейт аудио: 128 kb/s

Список серий

Эпизод 1: Darkness Rising: Part 1
Эпизод 2: Darkness Rising: Part 2
Эпизод 3: Darkness Rising: Part 3
Эпизод 4: Darkness Rising: Part 4
Эпизод 5: Darkness Rising: Part 5
Эпизод 6: Masters & Students
Эпизод 7: Scrapheap
Эпизод 8: Con Job
Эпизод 9: Convoy
Эпизод 10: Deus Ex Machina
Эпизод 11: Speed Metal
Эпизод 12: Predatory
Эпизод 13: Sick Mind
Эпизод 14: Out of His Head
Эпизод 15: Shadowzone
Эпизод 16: Operation: Breakdown
Эпизод 17: Crisscross
Эпизод 18: Metal Attraction
Эпизод 19: Rock Bottom
Эпизод 20: Partners
Эпизод 21: T.M.I.
Эпизод 22: Stronger, Faster
Эпизод 23: One Shall Fall
Эпизод 24: One Shall Rise: Part 1
Эпизод 25: One Shall Rise: Part 2
Эпизод 26: One Shall Rise: Part 3

MediaInfo

General
Complete name : Transformers_Prime.1x01.web-dlrip_dub.avi
Format : AVI
Format/Info : Audio Video Interleave
File size : 201 MiB
Duration : 22mn 0s
Overall bit rate : 1 275 Kbps
Writing application : VirtualDubMod 1.5.10.3 (build 2550/release)
Writing library : VirtualDubMod build 2550/release
Video #0
ID : 0
Format : MPEG-4 Visual
Format profile : Advanced Simple@L5
Format settings, BVOP : 1
Format settings, QPel : No
Format settings, GMC : No warppoints
Format settings, Matrix : Default (MPEG)
Codec ID : XVID
Codec ID/Hint : XviD
Duration : 22mn 0s
Bit rate : 1 138 Kbps
Width : 656 pixels
Height : 368 pixels
Display aspect ratio : 16:9
Frame rate : 23.976 fps
Color space : YUV
Chroma subsampling : 4:2:0
Bit depth : 8 bits
Scan type : Progressive
Compression mode : Lossy
Bits/(Pixel*Frame) : 0.197
Stream size : 179 MiB (89%)
Writing library : XviD 1.2.1 (UTC 2008-12-04)
Audio #1
ID : 1
Format : MPEG Audio
Format version : Version 1
Format profile : Layer 3
Mode : Joint stereo
Mode extension : MS Stereo
Codec ID : 55
Codec ID/Hint : MP3
Duration : 22mn 0s
Bit rate mode : Constant
Bit rate : 128 Kbps
Channel(s) : 2 channels
Sampling rate : 48.0 KHz
Compression mode : Lossy
Stream size : 20.2 MiB (10%)
Alignment : Aligned on interleaves
Interleave, duration : 42 ms (1.00 video frame)
Interleave, preload duration : 504 ms
Writing library : LAME3.98r
Encoding settings : -m j -V 4 -q 2 -lowpass 17 -b 128
Скриншоты:
       
       

_________________

Создавая "Новую папку", не считайте себя Создателем - это право Вам дано Админом


Вне форума [Профиль] [ЛС]
Показать сообщения:    
Ответить на тему

Текущее время: Сегодня 08:28

Часовой пояс: GMT + 3



Вы не можете начинать темы
Вы не можете отвечать на сообщения
Вы не можете редактировать свои сообщения
Вы не можете удалять свои сообщения
Вы не можете голосовать в опросах
Вы не можете прикреплять файлы к сообщениям
Вы не можете скачивать файлы