Сегодня идет свободное скачивание без начисления Download

Гриффины / Family Guy / Сезон: 13 / Серии: 1-8 (?) (Сет МакФарлейн / Seth MacFarlane) [2014, Мультсериал, Комедия, Пародия, Чёрный юмор, Ситком, WEB-DL 1080p] MVO (Filiza Studio) + Original + Subs (Eng)

Ответить на тему
 
Автор
Сообщение

Omen ®

Стаж: 4 года 10 месяцев

Сообщений: 190643

Торрент-статистика

Пост 22-Янв-2015 21:00

[Цитировать]

Гриффины / Family Guy- Страна: США
Жанр: Мультсериал, комедия, пародия, чёрный юмор, ситком
Продолжительность: ~22 минуты
Год выпуска: 2014
Перевод: Профессиональный (многоголосый закадровый)
Русские субтитры: нет-Режиссёр: Сет МакФарлейн / Seth MacFarlane
Роли озвучивали: Сет МакФарлейн, Алекс Борштейн, Сет Грин, Мила Кунис, Майк Генри и другие.-Описание: "Гриффины" (Family Guy) - анимационное ТВ-Шоу, созданное Сетом МакФарлейном (Seth MacFarlane) для телеканала FOX. Как нетрудно догадаться, главными героями шоу является семейка Гриффинов: тупой, но полный сумасшедших идей, составляющих львиную долю шуток сериала, отец семейства Питер; его любящая и терпеливая жена Лоис, всеми силами пытающаяся превратить Гриффинов в нормальную семью; их интеллектуально-развитый не по годам, вынашивающий идею мирового господства младший сын Стьюи; дочь-ботаник, обречённая из-за этого на одиночество и непонимание как в школе так и дома, Мэг; и 13-ти летний, отсталый в развитии лет на 10, сын Крис. Также полноценным членом семьи является пёс Брайн - склонный к меланхолии эстет, спокойно наблюдающий с бокалом вина в лапе над приключениями Питера и остальных членов семьи (и это при всём при том, что остальные собаки в сериале не являются очеловеченными).-Сэмпл-Качество: WEB-DL 1080p
Формат: MKV
Видео: AVC, 1920x1080, 23,976 fps, ~5000 kbps
Аудио Rus: AC3, 48Chz, 6 ch, 384 kbps (Filiza Studio)
Аудио Eng: AC3, 48Chz, 6 ch, 384 kbps
Субтитры: английские

Подробные технические данные

GeneralUnique ID : 219993869162215411019838295952058102322 (0xA581472C5377F80A9D57D87E355E3232)Complete name : C:\Family Guy (Season 13) WEB-DL 1080p\01. The Simpsons Guy.mkvFormat : MatroskaFormat version : Version 4 / Version 2File size : 1.69 GiBDuration : 43mn 43sOverall bit rate : 5 538 KbpsEncoded date : UTC 2015-01-12 22:17:50Writing application : mkvmerge v7.4.0 ('Circles') 64bit built on Dec 12 2014 12:19:56Writing library : libebml v1.3.0 + libmatroska v1.4.1_STATISTICS_WRITING_APP : mkvmerge v7.4.0 ('Circles') 64bit built on Dec 12 2014 12:19:56_STATISTICS_WRITING_DATE_UTC : 2015-01-12 22:17:50_STATISTICS_TAGS : BPS DURATION NUMBER_OF_FRAMES NUMBER_OF_BYTESDURATION : 00:43:02.311000000NUMBER_OF_FRAMES : 959NUMBER_OF_BYTES : 29230
VideoID : 1Format : AVCFormat/Info : Advanced Video CodecFormat profile : High@L4.0Format settings, CABAC : YesFormat settings, ReFrames : 4 framesCodec ID : V_MPEG4/ISO/AVCDuration : 43mn 43sBit rate : 4 660 KbpsWidth : 1 920 pixelsHeight : 1 080 pixelsDisplay aspect ratio : 16:9Frame rate mode : ConstantFrame rate : 23.976 fpsColor space : YUVChroma subsampling : 4:2:0Bit depth : 8 bitsScan type : ProgressiveBits/(Pixel*Frame) : 0.094Stream size : 1.42 GiB (84%)Language : EnglishDefault : YesForced : NoColor primaries : BT.709Transfer characteristics : BT.709Matrix coefficients : BT.709
Audio #1ID : 2Format : AC-3Format/Info : Audio Coding 3Mode extension : CM (complete main)Format settings, Endianness : BigCodec ID : A_AC3Duration : 43mn 43sBit rate mode : ConstantBit rate : 384 KbpsChannel(s) : 6 channelsChannel positions : Front: L C R, Side: L R, LFESampling rate : 48.0 KHzBit depth : 16 bitsCompression mode : LossyStream size : 120 MiB (7%)Title : FilizaLanguage : RussianDefault : YesForced : No
Audio #2ID : 3Format : AC-3Format/Info : Audio Coding 3Mode extension : CM (complete main)Format settings, Endianness : BigCodec ID : A_AC3Duration : 43mn 43sBit rate mode : ConstantBit rate : 384 KbpsChannel(s) : 6 channelsChannel positions : Front: L C R, Side: L R, LFESampling rate : 48.0 KHzBit depth : 16 bitsCompression mode : LossyStream size : 120 MiB (7%)Language : EnglishDefault : NoForced : No
TextID : 4Format : UTF-8Codec ID : S_TEXT/UTF8Codec ID/Info : UTF-8 Plain TextLanguage : EnglishDefault : NoForced : No

Скриншоты

Список серий

01. Симпсоновский парень (The Simpsons Guy)
02. Книга Джо (The Book of Joe)
03. Во все сладкие (Baking Bad)
04. Брайн замыкатель (Brian the Closer)
05. Мужики и индейка (Turkey Guys)
06. 2000-летний девственник (The 2000-Year-Old Virgin)
07. Невероятные приключения Стьюи, Криса и Брайна (Stewie, Chris & Brian's Excellent Adventure)
08. Наш идиот Брайн (Our Idiot Brian)

Внимание! Раздача ведётся путём добавления новых серий

Внимание! Раздача ведётся путём добавления новых серий; при каждом добавлении создётся новый торрент. Чтобы начать докачку новой серии, пользователям необходимо сделать следующее:
(1) остановить скачивание,
(2) удалить старый торрент у себя из клиента (старые серии удалять не надо),
(3) скачать новый торрент и запустить его у себя в клиенте вместо старого, при этом указать клиенту путь в старую папку куда и должно происходить скачивание новых серий.
Ваш клиент при этом должен произвести хеширование (проверку) старой папки (если не производит сам - помогите ему сделать это), и будет докачивать только те серии, которых у вас ещё нет. Старые серии при этом не удаляются, а продолжают раздаваться!
Eсли вы уже удалили старые серии, то предотвратить повторную закачку старых серий можно, отжав галочку в соответсвующих местах при запуске нового торрента. По возможности, желательно не удалять старые серии как можно дольше, чтобы релизёр не столько продолжал раздавать старые серии, а смог сконцентрироваться на новых.
Вне форума [Профиль] [ЛС]
Показать сообщения:    
Ответить на тему

Текущее время: Сегодня 22:14

Часовой пояс: GMT + 3



Вы не можете начинать темы
Вы не можете отвечать на сообщения
Вы не можете редактировать свои сообщения
Вы не можете удалять свои сообщения
Вы не можете голосовать в опросах
Вы не можете прикреплять файлы к сообщениям
Вы не можете скачивать файлы