Today is a free download without charge Download

Mozart - Piano Concertos - Geza Anda (Vol.1) (2001) [FLAC|Lossless]<Classical, Chamber Music, Recitals, Classical Period, Concerto>

Reply to topic
 
Author
Message

sashau ®

Gender:

Longevity: 8 years 10 months

Posts: 3497

Торрент-статистика

Post 13-Jan-2015 19:48

[Quote]

Mozart - Piano Concertos - Geza Anda (Vol.1)- Год: 2001
Жанр: Classical, Chamber Music, Recitals, Classical Period, Concerto
Лейбл: Deutsche Grammophon
Номер по каталогу: 429001-2
Продолжительность: 04:06:56
Кодек: FLAC
Битрейт: Lossless
Тип рипа: image +.cue
Composer: Wolfgang Amadeus Mozart (1756-1791)
Performer: Géza Anda - piano & conductor
Ensemble: Camerata Academica des Salzburger Mozarteums

CD1&#58;

Продолжительность: 00:56:12
Треклист:
Piano Concerto No.1 in F major KV 37
01. Allegro (05:05)
02. Andante (05:05)
03. Allegro (06:40)
Piano Concerto No.2 in B flat major KV 39
04. Allegro Spiritoso (05:10)
05. Andante (04:38)
06. Molto Allegro (03:53)
Piano Concerto No.3 in D major KV 40
07. Allegro Maestoso (05:00)
08. Andante (04:00)
09. Presto (03:37)
Piano Concerto No.4 in G major KV 41
10. Allegro (05:04)
11. Andante (04:18)
12. Molto Allegro (03:43)

cd1 ЕАС - log&#58;

Код:
Exact Audio Copy V1.0 beta 3 from 29. August 2011
EAC extraction logfile from 6. June 2013, 14:30
Géza Anda / Mozart - Piano Concertos - Géza Anda (Vol.1) (Disc 1)
Used drive  : TSSTcorpCDDVDW TS-L633M   Adapter: 1  ID: 0
Read mode               : Secure
Utilize accurate stream : Yes
Defeat audio cache      : Yes
Make use of C2 pointers : No
Read offset correction                      : 6
Overread into Lead-In and Lead-Out          : No
Fill up missing offset samples with silence : Yes
Delete leading and trailing silent blocks   : No
Null samples used in CRC calculations       : Yes
Used interface                              : Native Win32 interface for Win NT & 2000
Used output format              : User Defined Encoder
Selected bitrate                : 320 kBit/s
Quality                         : High
Add ID3 tag                     : No
Command line compressor         : C:\Program Files\Exact Audio Copy\Flac\flac.exe
Additional command line options : -8 -V -T "TITLE=%title%" -T "ARTIST=%artist%" -T "ALBUMARTIST=%albumartist%" -T "ALBUM=%albumtitle%" -T "DATE=%year%" -T "TRACKNUMBER=%tracknr%" -T "TRACKTOTAL=%numtracks%" -T "GENRE=%genre%" -T "COMMENT=%comment%" -T "PERFORMER=%albuminterpret%" -T "COMPOSER=%composer%" %source% -o %dest%
TOC of the extracted CD
     Track |   Start  |  Length  | Start sector | End sector
    ---------------------------------------------------------
        1  |  0:00.33 |  5:04.50 |        33    |    22882
        2  |  5:05.08 |  5:05.00 |     22883    |    45757
        3  | 10:10.08 |  6:39.50 |     45758    |    75732
        4  | 16:49.58 |  5:10.25 |     75733    |    99007
        5  | 22:00.08 |  4:38.00 |     99008    |   119857
        6  | 26:38.08 |  3:52.50 |    119858    |   137307
        7  | 30:30.58 |  5:00.25 |    137308    |   159832
        8  | 35:31.08 |  4:00.00 |    159833    |   177832
        9  | 39:31.08 |  3:36.50 |    177833    |   194082
       10  | 43:07.58 |  5:04.25 |    194083    |   216907
       11  | 48:12.08 |  4:18.00 |    216908    |   236257
       12  | 52:30.08 |  3:43.12 |    236258    |   252994
Range status and errors
Selected range
     Filename C:\Users\JS\Desktop\Mozart - Piano Concertos - Géza Anda (Vol.1)\cd1\Mozart - Piano Concertos - Géza Anda (Vol.1) (Disc 1).wav
     Peak level 93.1 %
     Extraction speed 1.9 X
     Range quality 100.0 %
     Test CRC 1874F129
     Copy CRC 1874F129
     Copy OK
No errors occurred
AccurateRip summary
Track  1  cannot be verified as accurate (confidence 5)  [C59C80B6], AccurateRip returned [7DF7214C]  (AR v2)
Track  2  cannot be verified as accurate (confidence 5)  [9E8B8059], AccurateRip returned [EBE9A021]  (AR v2)
Track  3  cannot be verified as accurate (confidence 5)  [ED2F8444], AccurateRip returned [F54FD21A]  (AR v2)
Track  4  cannot be verified as accurate (confidence 5)  [B3318F13], AccurateRip returned [A5F11C56]  (AR v2)
Track  5  cannot be verified as accurate (confidence 5)  [24E84910], AccurateRip returned [06D50E27]  (AR v2)
Track  6  cannot be verified as accurate (confidence 5)  [E7BB1B06], AccurateRip returned [5C47001A]  (AR v2)
Track  7  cannot be verified as accurate (confidence 5)  [67AECF08], AccurateRip returned [10F19FB5]  (AR v2)
Track  8  cannot be verified as accurate (confidence 5)  [281797A2], AccurateRip returned [733DD61C]  (AR v2)
Track  9  cannot be verified as accurate (confidence 5)  [28728939], AccurateRip returned [D7868D2B]  (AR v2)
Track 10  cannot be verified as accurate (confidence 5)  [286DEDE1], AccurateRip returned [2FE59904]  (AR v2)
Track 11  cannot be verified as accurate (confidence 5)  [B649F6BC], AccurateRip returned [3AECAE1C]  (AR v2)
Track 12  cannot be verified as accurate (confidence 5)  [B4482E18], AccurateRip returned [EC4095A3]  (AR v2)
No tracks could be verified as accurate
You may have a different pressing from the one(s) in the database
End of status report

cd1 auCDtect - log&#58;

Код:
-----------------------
DON'T MODIFY THIS FILE
-----------------------
PERFORMER: auCDtect Task Manager, ver. 1.5.1RC6 build 1.5.1.7
Copyright (c) 2008-2010 y-soft. All rights reserved
http://y-soft.org
ANALYZER: auCDtect: CD records authenticity detector, version 0.8.2
Copyright (c) 2004 Oleg Berngardt. All rights reserved.
Copyright (c) 2004 Alexander Djourik. All rights reserved.
FILE: Mozart - Piano Concertos - Geza Anda (Vol.1) (Disc 1).flac
  Size: 273422822 Hash: 47C446F093634313435E47BA029C3BB6 Accuracy: -m0
  Conclusion: CDDA 100%
  Signature: D97534D37DDE9249FD8721871AC77D395AC1987B

cd1 cue sheet (*.cue&#41;&#58;

Код:
REM GENRE Classical
REM DATE 1968
REM DISCID 870D2D0C
REM COMMENT "ExactAudioCopy v1.0b3"
PERFORMER "Geza Anda"
TITLE "Mozart - Piano Concertos - Geza Anda (Vol.1) (Disc 1)"
FILE "Mozart - Piano Concertos - Geza Anda (Vol.1) (Disc 1).flac" WAVE
  TRACK 01 AUDIO
    TITLE "Mozart - KV 37 Klavierkonzert Nr. 1 F-dur - 1. Allegro (Geza Anda, Solist und..."
    PERFORMER "Geza Anda"
    INDEX 00 00:00:00
    INDEX 01 00:00:33
  TRACK 02 AUDIO
    TITLE "Mozart - KV 37 Klavierkonzert Nr. 1 F-dur - 2. Andante (Geza Anda, Solist und..."
    PERFORMER "Geza Anda"
    INDEX 00 05:02:08
    INDEX 01 05:05:08
  TRACK 03 AUDIO
    TITLE "Mozart - KV 37 Klavierkonzert Nr. 1 F-dur - 3. Allegro (Geza Anda, Solist und..."
    PERFORMER "Geza Anda"
    INDEX 00 10:08:45
    INDEX 01 10:10:08
  TRACK 04 AUDIO
    TITLE "Mozart - KV 39 Klavierkonzert Nr. 2 B-dur - 1. Allegro Spiritoso (Geza Anda, ..."
    PERFORMER "Geza Anda"
    INDEX 00 16:41:20
    INDEX 01 16:49:58
  TRACK 05 AUDIO
    TITLE "Mozart - KV 39 Klavierkonzert Nr. 2 B-dur - 2. Andante (Geza Anda, Solist und..."
    PERFORMER "Geza Anda"
    INDEX 00 21:57:45
    INDEX 01 22:00:08
  TRACK 06 AUDIO
    TITLE "Mozart - KV 39 Klavierkonzert Nr. 2 B-dur - 3. Molto Allegro (Geza Anda, Soli..."
    PERFORMER "Geza Anda"
    INDEX 00 26:36:58
    INDEX 01 26:38:08
  TRACK 07 AUDIO
    TITLE "Mozart - KV 40 Klavierkonzert Nr. 3 D-dur - 1. Allegro Maestoso (Geza Anda, S..."
    PERFORMER "Geza Anda"
    INDEX 00 30:22:33
    INDEX 01 30:30:58
  TRACK 08 AUDIO
    TITLE "Mozart - KV 40 Klavierkonzert Nr. 3 D-dur - 2. Andante (Geza Anda, Solist und..."
    PERFORMER "Geza Anda"
    INDEX 00 35:28:33
    INDEX 01 35:31:08
  TRACK 09 AUDIO
    TITLE "Mozart - KV 40 Klavierkonzert Nr. 3 D-dur - 3. Presto (Geza Anda, Solist und ..."
    PERFORMER "Geza Anda"
    INDEX 00 39:29:58
    INDEX 01 39:31:08
  TRACK 10 AUDIO
    TITLE "Mozart - KV 41 Klavierkonzert Nr. 4 G-dur - 1. Allegro (Geza Anda, Solist und..."
    PERFORMER "Geza Anda"
    INDEX 00 42:59:45
    INDEX 01 43:07:58
  TRACK 11 AUDIO
    TITLE "Mozart - KV 41 Klavierkonzert Nr. 4 G-dur - 2. Andante (Geza Anda, Solist und..."
    PERFORMER "Geza Anda"
    INDEX 00 48:09:45
    INDEX 01 48:12:08
  TRACK 12 AUDIO
    TITLE "Mozart - KV 41 Klavierkonzert Nr. 4 G-dur - 3. Molto Allegro (Geza Anda, Soli..."
    PERFORMER "Geza Anda"
    INDEX 00 52:28:08
    INDEX 01 52:30:08

CD2&#58;

Продолжительность: 01:03:57
Треклист:
Piano Concerto No.6 in B flat major KV 238
01. Allegro aperto (07:08)
02. Andante un poco adagio (06:02)
03. Rondeau: Allegro (07:03)
Piano Concerto No.8 in C major KV 246
04. Allegro aperto (07:29)
05. Andante (08:24)
06. Tempo di Minuetto (07:00)
Piano Concerto No.14 in E flat major KV 449
07. Allegro vivace (08:30)
08. Andantino (06:32)
09. Allegro, ma non troppo (05:48)

cd2 EAC - log&#58;

Код:
Exact Audio Copy V1.0 beta 3 from 29. August 2011
EAC extraction logfile from 6. June 2013, 12:39
Géza Anda / Mozart - Piano Concertos - Géza Anda (Vol.1) (Disc 2)
Used drive  : TSSTcorpCDDVDW TS-L633M   Adapter: 1  ID: 0
Read mode               : Secure
Utilize accurate stream : Yes
Defeat audio cache      : Yes
Make use of C2 pointers : No
Read offset correction                      : 6
Overread into Lead-In and Lead-Out          : No
Fill up missing offset samples with silence : Yes
Delete leading and trailing silent blocks   : No
Null samples used in CRC calculations       : Yes
Used interface                              : Native Win32 interface for Win NT & 2000
Used output format              : User Defined Encoder
Selected bitrate                : 320 kBit/s
Quality                         : High
Add ID3 tag                     : No
Command line compressor         : C:\Program Files\Exact Audio Copy\Flac\flac.exe
Additional command line options : -8 -V -T "TITLE=%title%" -T "ARTIST=%artist%" -T "ALBUMARTIST=%albumartist%" -T "ALBUM=%albumtitle%" -T "DATE=%year%" -T "TRACKNUMBER=%tracknr%" -T "TRACKTOTAL=%numtracks%" -T "GENRE=%genre%" -T "COMMENT=%comment%" -T "PERFORMER=%albuminterpret%" -T "COMPOSER=%composer%" %source% -o %dest%
TOC of the extracted CD
     Track |   Start  |  Length  | Start sector | End sector
    ---------------------------------------------------------
        1  |  0:00.33 |  7:08.25 |        33    |    32157
        2  |  7:08.58 |  6:02.12 |     32158    |    59319
        3  | 13:10.70 |  7:03.08 |     59320    |    91052
        4  | 20:14.03 |  7:29.05 |     91053    |   124732
        5  | 27:43.08 |  8:24.00 |    124733    |   162532
        6  | 36:07.08 |  7:00.00 |    162533    |   194032
        7  | 43:07.08 |  8:29.50 |    194033    |   232257
        8  | 51:36.58 |  6:32.30 |    232258    |   261687
        9  | 58:09.13 |  5:48.20 |    261688    |   287807
Range status and errors
Selected range
     Filename C:\Users\JS\Desktop\Mozart - Piano Concertos - Géza Anda (Vol.1)\cd2\Mozart - Piano Concertos - Géza Anda (Vol.1) (Disc 2).wav
     Peak level 92.5 %
     Extraction speed 2.1 X
     Range quality 99.9 %
     Test CRC FF1ECDC8
     Copy CRC FF1ECDC8
     Copy OK
No errors occurred
AccurateRip summary
Track  1  accurately ripped (confidence 5)  [4FE2E9EE]  (AR v1)
Track  2  accurately ripped (confidence 5)  [26035509]  (AR v1)
Track  3  accurately ripped (confidence 5)  [391FB010]  (AR v1)
Track  4  accurately ripped (confidence 5)  [B153446D]  (AR v1)
Track  5  accurately ripped (confidence 5)  [CF6B3542]  (AR v1)
Track  6  accurately ripped (confidence 5)  [8E4EE5B3]  (AR v1)
Track  7  accurately ripped (confidence 5)  [9D3755B7]  (AR v1)
Track  8  accurately ripped (confidence 5)  [B9976045]  (AR v1)
Track  9  accurately ripped (confidence 5)  [B0A68545]  (AR v1)
All tracks accurately ripped
End of status report

cd2 auCDtect - log&#58;

Код:
-----------------------
DON'T MODIFY THIS FILE
-----------------------
PERFORMER: auCDtect Task Manager, ver. 1.5.1RC6 build 1.5.1.7
Copyright (c) 2008-2010 y-soft. All rights reserved
http://y-soft.org
ANALYZER: auCDtect: CD records authenticity detector, version 0.8.2
Copyright (c) 2004 Oleg Berngardt. All rights reserved.
Copyright (c) 2004 Alexander Djourik. All rights reserved.
FILE: Mozart - Piano Concertos - Geza Anda (Vol.1) (Disc 2).flac
  Size: 308989524 Hash: EC0A9E7345A6E4A7CB30FCD20C015A4C Accuracy: -m0
  Conclusion: CDDA 99%
  Signature: EC1F42022D29385150CE515EB6B80E6856E26271

cd2 cue sheet (*.cue&#41;

Код:
REM GENRE Classical
REM DATE 1962
REM DISCID 860EFD09
REM COMMENT "ExactAudioCopy v1.0b3"
PERFORMER "Geza Anda"
TITLE "Mozart - Piano Concertos - Geza Anda (Vol.1) (Disc 2)"
FILE "Mozart - Piano Concertos - Geza Anda (Vol.1) (Disc 2).flac" WAVE
  TRACK 01 AUDIO
    TITLE "Mozart - KV 238 Klavierkonzert Nr. 6 B-dur - 1. Allegro aperto (Geza Anda, So..."
    PERFORMER "Geza Anda"
    INDEX 00 00:00:00
    INDEX 01 00:00:33
  TRACK 02 AUDIO
    TITLE "Mozart - KV 238 Klavierkonzert Nr. 6 B-dur - 2. Andante un poco adagio (Geza ..."
    PERFORMER "Geza Anda"
    INDEX 00 07:06:08
    INDEX 01 07:08:58
  TRACK 03 AUDIO
    TITLE "Mozart - KV 238 Klavierkonzert Nr. 6 B-dur - 3. Rondeau: Allegro (Geza Anda, ..."
    PERFORMER "Geza Anda"
    INDEX 00 13:09:50
    INDEX 01 13:10:70
  TRACK 04 AUDIO
    TITLE "Mozart - KV 246 Klavierkonzert Nr. 8 C-dur - 1. Allegro aperto (Geza Anda, So..."
    PERFORMER "Geza Anda"
    INDEX 00 20:06:33
    INDEX 01 20:14:03
  TRACK 05 AUDIO
    TITLE "Mozart - KV 246 Klavierkonzert Nr. 8 C-dur - 2. Andante (Geza Anda, Solist un..."
    PERFORMER "Geza Anda"
    INDEX 00 27:40:45
    INDEX 01 27:43:08
  TRACK 06 AUDIO
    TITLE "Mozart - KV 246 Klavierkonzert Nr. 8 C-dur - 3. Tempo di Minuetto (Geza Anda,..."
    PERFORMER "Geza Anda"
    INDEX 00 36:04:58
    INDEX 01 36:07:08
  TRACK 07 AUDIO
    TITLE "Mozart - KV 449 Klavierkonzert Nr. 14 Es-dur - 1. Allegro vivace (Geza Anda, ..."
    PERFORMER "Geza Anda"
    INDEX 00 42:58:70
    INDEX 01 43:07:08
  TRACK 08 AUDIO
    TITLE "Mozart - KV 449 Klavierkonzert Nr. 14 Es-dur - 2. Andantino (Geza Anda, Solis..."
    PERFORMER "Geza Anda"
    INDEX 00 51:34:30
    INDEX 01 51:36:58
  TRACK 09 AUDIO
    TITLE "Mozart - KV 449 Klavierkonzert Nr. 14 Es-dur - 3. Allegro, ma non troppo (Gйz..."
    PERFORMER "Geza Anda"
    INDEX 00 58:06:73
    INDEX 01 58:09:13

CD3&#58;

Продолжительность: 00:55:01
Треклист:
Piano Concerto No.9 in E flat major KV 271 "Jeunehomme"
01. Allegro (10:23)
02. Andantino (13:33)
03. Rondeau: Presto - Menuetto: Cantabile - Tempo primo (10:13)
Piano Concerto No.11 in F major KV 413
04. Allegro (08:38)
05. Larghetto (07:10)
06. Tempo di menuetto (05:04)

cd3 EAC - log&#58;

Код:
Exact Audio Copy V1.0 beta 3 from 29. August 2011
EAC extraction logfile from 6. June 2013, 16:20
Géza Anda / Mozart - Piano Concertos - Géza Anda (Vol.1) (Disc 3)
Used drive  : TSSTcorpCDDVDW TS-L633M   Adapter: 1  ID: 0
Read mode               : Secure
Utilize accurate stream : Yes
Defeat audio cache      : Yes
Make use of C2 pointers : No
Read offset correction                      : 6
Overread into Lead-In and Lead-Out          : No
Fill up missing offset samples with silence : Yes
Delete leading and trailing silent blocks   : No
Null samples used in CRC calculations       : Yes
Used interface                              : Native Win32 interface for Win NT & 2000
Used output format              : User Defined Encoder
Selected bitrate                : 320 kBit/s
Quality                         : High
Add ID3 tag                     : No
Command line compressor         : C:\Program Files\Exact Audio Copy\Flac\flac.exe
Additional command line options : -8 -V -T "TITLE=%title%" -T "ARTIST=%artist%" -T "ALBUMARTIST=%albumartist%" -T "ALBUM=%albumtitle%" -T "DATE=%year%" -T "TRACKNUMBER=%tracknr%" -T "TRACKTOTAL=%numtracks%" -T "GENRE=%genre%" -T "COMMENT=%comment%" -T "PERFORMER=%albuminterpret%" -T "COMPOSER=%composer%" %source% -o %dest%
TOC of the extracted CD
     Track |   Start  |  Length  | Start sector | End sector
    ---------------------------------------------------------
        1  |  0:00.33 | 10:22.50 |        33    |    46732
        2  | 10:23.08 | 13:33.12 |     46733    |   107719
        3  | 23:56.20 | 10:12.63 |    107720    |   153682
        4  | 34:09.08 |  8:38.25 |    153683    |   192557
        5  | 42:47.33 |  7:09.62 |    192558    |   224794
        6  | 49:57.20 |  5:04.13 |    224795    |   247607
Range status and errors
Selected range
     Filename C:\Users\JS\Desktop\Mozart - Piano Concertos - Géza Anda (Vol.1)\cd3\Mozart - Piano Concertos - Géza Anda (Vol.1) (Disc 3).wav
     Peak level 89.7 %
     Extraction speed 1.9 X
     Range quality 100.0 %
     Test CRC BCECBC3C
     Copy CRC BCECBC3C
     Copy OK
No errors occurred
AccurateRip summary
Track  1  accurately ripped (confidence 5)  [26268748]  (AR v1)
Track  2  accurately ripped (confidence 5)  [C66B4EFB]  (AR v1)
Track  3  accurately ripped (confidence 5)  [10884C43]  (AR v1)
Track  4  accurately ripped (confidence 5)  [6FAC3548]  (AR v1)
Track  5  accurately ripped (confidence 5)  [48E9F127]  (AR v1)
Track  6  accurately ripped (confidence 5)  [A3FA3092]  (AR v1)
All tracks accurately ripped
End of status report

cd3 auCDtect - log&#58;

Код:
-----------------------
DON'T MODIFY THIS FILE
-----------------------
PERFORMER: auCDtect Task Manager, ver. 1.5.1RC6 build 1.5.1.7
Copyright (c) 2008-2010 y-soft. All rights reserved
http://y-soft.org
ANALYZER: auCDtect: CD records authenticity detector, version 0.8.2
Copyright (c) 2004 Oleg Berngardt. All rights reserved.
Copyright (c) 2004 Alexander Djourik. All rights reserved.
FILE: Mozart - Piano Concertos - Geza Anda (Vol.1) (Disc 3).flac
  Size: 259156508 Hash: E7EEA9D5ACE8304306F53B21BCE2969A Accuracy: -m0
  Conclusion: CDDA 100%
  Signature: 9859642660742E875D6F60D2C2EFFA3E47F1210B

cd3 cue sheet (*.cue&#41;

Код:
REM GENRE Classical
REM DATE 1969
REM DISCID 5A0CE506
REM COMMENT "ExactAudioCopy v1.0b3"
PERFORMER "Geza Anda"
TITLE "Mozart - Piano Concertos - Geza Anda (Vol.1) (Disc 3)"
FILE "Mozart - Piano Concertos - Geza Anda (Vol.1) (Disc 3).flac" WAVE
  TRACK 01 AUDIO
    TITLE "Mozart - KV 271 Klavierkonzert Nr. 9 Es-dur - 1. Allegro (Geza Anda, Solist u..."
    PERFORMER "Geza Anda"
    INDEX 00 00:00:00
    INDEX 01 00:00:33
  TRACK 02 AUDIO
    TITLE "Mozart - KV 271 Klavierkonzert Nr. 9 Es-dur - 2. Andantino (Geza Anda, Solist..."
    PERFORMER "Geza Anda"
    INDEX 00 10:20:33
    INDEX 01 10:23:08
  TRACK 03 AUDIO
    TITLE "Mozart - KV 271 Klavierkonzert Nr. 9 Es-dur - 3. Rondeau: Presto - Menuetto: ..."
    PERFORMER "Geza Anda"
    INDEX 00 23:52:45
    INDEX 01 23:56:20
  TRACK 04 AUDIO
    TITLE "Mozart - KV 413 (387a) Klavierkonzert Nr. 11 F-dur - 1. Allegro (Geza Anda, S..."
    PERFORMER "Geza Anda"
    INDEX 00 34:00:58
    INDEX 01 34:09:08
  TRACK 05 AUDIO
    TITLE "Mozart - KV 413 (387a) Klavierkonzert Nr. 11 F-dur - 2. Larghetto (Geza Anda,..."
    PERFORMER "Geza Anda"
    INDEX 00 42:44:08
    INDEX 01 42:47:33
  TRACK 06 AUDIO
    TITLE "Mozart - KV 413 (387a) Klavierkonzert Nr. 11 F-dur - 3. Tempo di menuetto (Gй..."
    PERFORMER "Geza Anda"
    INDEX 00 49:54:45
    INDEX 01 49:57:20

CD4&#58;

Продолжительность: 01:11:44
Треклист:
Piano Concerto No.12 in A major KV 414
01. Allegro (09:58)
02. Andante (06:52)
03. Allegretto (06:07)
Piano Concerto No.13 in C major KV 415 (387b)
04. Allegro (10:03)
05. Andante (06:37)
06. Allegro (08:34)
Piano Concerto No.15 in B flat major KV 450
07. Allegro (10:15)
08. Andante (05:36)
09. Allegro (07:42)

cd4 EAC - log&#58;

Код:
Exact Audio Copy V1.0 beta 3 from 29. August 2011
EAC extraction logfile from 6. June 2013, 17:00
Géza Anda / Mozart - Piano Concertos - Géza Anda (Vol.1) (Disc 4)
Used drive  : TSSTcorpCDDVDW TS-L633M   Adapter: 1  ID: 0
Read mode               : Secure
Utilize accurate stream : Yes
Defeat audio cache      : Yes
Make use of C2 pointers : No
Read offset correction                      : 6
Overread into Lead-In and Lead-Out          : No
Fill up missing offset samples with silence : Yes
Delete leading and trailing silent blocks   : No
Null samples used in CRC calculations       : Yes
Used interface                              : Native Win32 interface for Win NT & 2000
Used output format              : User Defined Encoder
Selected bitrate                : 320 kBit/s
Quality                         : High
Add ID3 tag                     : No
Command line compressor         : C:\Program Files\Exact Audio Copy\Flac\flac.exe
Additional command line options : -8 -V -T "TITLE=%title%" -T "ARTIST=%artist%" -T "ALBUMARTIST=%albumartist%" -T "ALBUM=%albumtitle%" -T "DATE=%year%" -T "TRACKNUMBER=%tracknr%" -T "TRACKTOTAL=%numtracks%" -T "GENRE=%genre%" -T "COMMENT=%comment%" -T "PERFORMER=%albuminterpret%" -T "COMPOSER=%composer%" %source% -o %dest%
TOC of the extracted CD
     Track |   Start  |  Length  | Start sector | End sector
    ---------------------------------------------------------
        1  |  0:00.33 |  9:58.27 |        33    |    44909
        2  |  9:58.60 |  6:51.73 |     44910    |    75807
        3  | 16:50.58 |  6:07.02 |     75808    |   103334
        4  | 22:57.60 | 10:02.58 |    103335    |   148542
        5  | 33:00.43 |  6:36.40 |    148543    |   178282
        6  | 39:37.08 |  8:34.00 |    178283    |   216832
        7  | 48:11.08 | 10:14.70 |    216833    |   262952
        8  | 58:26.03 |  5:36.05 |    262953    |   288157
        9  | 64:02.08 |  7:42.25 |    288158    |   322832
Range status and errors
Selected range
     Filename C:\Users\JS\Desktop\Mozart - Piano Concertos - Géza Anda (Vol.1)\cd4\Mozart - Piano Concertos - Géza Anda (Vol.1) (Disc 4).wav
     Peak level 99.3 %
     Extraction speed 2.1 X
     Range quality 100.0 %
     Test CRC 98F33227
     Copy CRC 98F33227
     Copy OK
No errors occurred
AccurateRip summary
Track  1  cannot be verified as accurate (confidence 5)  [0717C8B6], AccurateRip returned [BB193D40]  (AR v2)
Track  2  cannot be verified as accurate (confidence 5)  [6FAFD838], AccurateRip returned [3BEC61DC]  (AR v2)
Track  3  cannot be verified as accurate (confidence 5)  [271487F9], AccurateRip returned [2DA64D11]  (AR v2)
Track  4  cannot be verified as accurate (confidence 5)  [9679C180], AccurateRip returned [21FCFE4D]  (AR v2)
Track  5  cannot be verified as accurate (confidence 5)  [80285AB7], AccurateRip returned [71659897]  (AR v2)
Track  6  cannot be verified as accurate (confidence 4)  [29597E6F], AccurateRip returned [C28F4232]  (AR v2)
Track  7  cannot be verified as accurate (confidence 5)  [DDEE23CE], AccurateRip returned [49DBE001]  (AR v2)
Track  8  cannot be verified as accurate (confidence 5)  [FE6F9778], AccurateRip returned [3C570A92]  (AR v2)
Track  9  cannot be verified as accurate (confidence 5)  [A7868377], AccurateRip returned [2FEE01BC]  (AR v2)
No tracks could be verified as accurate
You may have a different pressing from the one(s) in the database
End of status report

cd4 auCDtect - log&#58;

Код:
-----------------------
DON'T MODIFY THIS FILE
-----------------------
PERFORMER: auCDtect Task Manager, ver. 1.5.1RC6 build 1.5.1.7
Copyright (c) 2008-2010 y-soft. All rights reserved
http://y-soft.org
ANALYZER: auCDtect: CD records authenticity detector, version 0.8.2
Copyright (c) 2004 Oleg Berngardt. All rights reserved.
Copyright (c) 2004 Alexander Djourik. All rights reserved.
FILE: Mozart - Piano Concertos - Geza Anda (Vol.1) (Disc 4).flac
  Size: 333240222 Hash: EB7DDC3E5AEA5F63B7D208E3428D59D1 Accuracy: -m0
  Conclusion: CDDA 100%
  Signature: C771E53BC0A31C5F72CAE90E5260F8EA1A34B37C

cd4 cue sheet (*.cue&#41;

Код:
REM GENRE Classical
REM DATE 1965
REM DISCID 8210D009
REM COMMENT "ExactAudioCopy v1.0b3"
PERFORMER "Geza Anda"
TITLE "Mozart - Piano Concertos - Geza Anda (Vol.1) (Disc 4)"
FILE "Mozart - Piano Concertos - Geza Anda (Vol.1) (Disc 4).flac" WAVE
  TRACK 01 AUDIO
    TITLE "Mozart - KV 414 (385p) Klavierkonzert Nr. 12 A-dur - 1. Allegro (Geza Anda, S..."
    PERFORMER "Geza Anda"
    INDEX 00 00:00:00
    INDEX 01 00:00:33
  TRACK 02 AUDIO
    TITLE "Mozart - KV 414 (385p) Klavierkonzert Nr. 12 A-dur - 2. Andante (Geza Anda, S..."
    PERFORMER "Geza Anda"
    INDEX 00 09:55:50
    INDEX 01 09:58:60
  TRACK 03 AUDIO
    TITLE "Mozart - KV 414 (385p) Klavierkonzert Nr. 12 A-dur - 3. Allegretto (Geza Anda..."
    PERFORMER "Geza Anda"
    INDEX 00 16:49:05
    INDEX 01 16:50:58
  TRACK 04 AUDIO
    TITLE "Mozart - KV 415 (387b) Klavierkonzert Nr. 13 C-dur - 1. Allegro (Geza Anda, S..."
    PERFORMER "Geza Anda"
    INDEX 00 22:49:60
    INDEX 01 22:57:60
  TRACK 05 AUDIO
    TITLE "Mozart - KV 415 (387b) Klavierkonzert Nr. 13 C-dur - 2. Andante  (Geza Anda, ..."
    PERFORMER "Geza Anda"
    INDEX 00 32:57:70
    INDEX 01 33:00:43
  TRACK 06 AUDIO
    TITLE "Mozart - KV 415 (387b) Klavierkonzert Nr. 13 C-dur - 3. Allegro (Geza Anda, S..."
    PERFORMER "Geza Anda"
    INDEX 00 39:35:00
    INDEX 01 39:37:08
  TRACK 07 AUDIO
    TITLE "Mozart - KV 450 Klavierkonzert Nr. 15 B-dur - 1. Allegro (Geza Anda, Solist u..."
    PERFORMER "Geza Anda"
    INDEX 00 48:03:20
    INDEX 01 48:11:08
  TRACK 08 AUDIO
    TITLE "Mozart - KV 450 Klavierkonzert Nr. 15 B-dur - 2. Andante  (Geza Anda, Solist ..."
    PERFORMER "Geza Anda"
    INDEX 00 58:23:08
    INDEX 01 58:26:03
  TRACK 09 AUDIO
    TITLE "Mozart - KV 450 Klavierkonzert Nr. 15 B-dur - 3. Allegro (Geza Anda, Solist u..."
    PERFORMER "Geza Anda"
    INDEX 00 63:59:33
    INDEX 01 64:02:08
Other forum [Profile] [PM]
Display posts from previous:    
Reply to topic

The time now is: Today 23:07

All times are GMT + 3 Hours



You cannot post new topics in this forum
You cannot reply to topics in this forum
You cannot edit your posts in this forum
You cannot delete your posts in this forum
You cannot vote in polls in this forum
You cannot attach files in this forum
You cannot download files in this forum