Сегодня идет свободное скачивание без начисления Download

Не может быть! (Леонид Гайдай) [1975, Мюзикл, мелодрама, комедия, DVDRip] (три новеллы)

Ответить на тему
 
Автор
Сообщение

Omen ®

Стаж: 5 лет 8 месяцев

Сообщений: 184433

Торрент-статистика

Пост 19-Фев-2012 19:22

[Цитировать]

Не может быть!- Русское название: Не может быть!
Год выпуска: 1975
Страна: СССР
Жанр: Комедия, Мелодрама
Продолжительность: 1:31:39-Сценарий: Владлен Бахнов, Леонид Гайдай, Михаил Зощенко
Директор фильма: Эрик Вайсберг
Оператор: Сергей Полуянов
Композитор: Александр Зацепин
Художник: Евгений Куманков, Т. Абидова, Александра Збарская
Монтаж: Людмила Фейгинова-Зрители: СССР 46.9 млн
Премьера (мир): 23 октября 1975, ...
Релиз на DVD: 30 июня 2011, «Парадиз Видео», ...-Описание фильма:
Фильм состоит из трёх новелл:
Преступление и наказание
В первой описываются сложности человека, живущего в советское время конца 20-х годов на нетрудовые доходы. Будучи вызванным к прокурору, главный герой небезосновательно полагает, что вызов этот не принесёт ничего хорошего. Эти же мысли посещают его супругу и шурина, которые, дабы предупредить неизбежную конфискацию имущества, срочно продают всё, что было нажито «непосильным» трудом. Кроме того, жена спешно разводится с главным героем и выходит замуж за соседа. А сам главный герой, которого всего-навсего вызывали свидетелем, в отличном настроении возвращается домой… Впрочем, героя арестуют, но это будет потом.
Кадр из кинофильма «Не может быть!»
-Забавное приключение
Во второй показаны тонкости внебрачных отношений. Уходя в выходной день якобы на работу, а на самом деле к любовнице, иногда сложно себе представить, что муж любовницы вполне может оказаться любовником подруги любовницы, а сосед подруги любовницы по коммуналке — любовником твоей собственной жены. В конце-концов, все шестеро героев чисто случайно, при интересных обстоятельствах, пересекаются вместе, и собравшись за столом, пытаются найти выход из сложившейся ситуации.
-Свадебное происшествие
В третьей молодой человек, поторопившийся с предложением руки и сердца, приходит на собственную свадьбу, где никак не может узнать свою невесту — до этого они встречались только на улице и он запомнил её в зимней одежде. Попытки незаметно выяснить, кто же из присутствующих женщин его будущая жена, приводят к непредсказуемым последствиям.
-Режиссер: Леонид Гайдай
Актеры: Михаил Пуговкин, Нина Гребешкова, Вячеслав Невинный, Михаил Светин, Наталья Селезнёва, Олег Даль, Светлана Крючкова, Евгений Жариков, Лариса Еремина, Михаил Кокшенов, Георгий Вицин, Леонид Куравлев, Савелий Краморов, Готлиб Ронинсон, Сергей Филиппов- -Видеокодек: Xvid
Битрейт видео: ~25 fps, XviD build 50, ~999 kbps avg, 0.13 bit/pixel
Размер кадра: 640x480 (1.33:1)
Качество видео: DVDRip
Аудиокодек: MP3
Битрейт аудио: 48 kHz, MPEG Layer 3, 2 ch, ~128.00 kbps avg
-

MediaInfo

Код:
Общее
Формат                                   : AVI
Формат/Информация                        : Audio Video Interleave
Размер файла                             : 746 Мбайт
Продолжительность                        : 1 ч. 31 м.
Общий поток                              : 1138 Кбит/сек
Программа кодирования                    : VirtualDubMod 1.5.10.2 (build 2540/release)
Библиотека кодирования                   : VirtualDubMod build 2540/release
Видео
Идентификатор                            : 0
Формат                                   : MPEG-4 Visual
Профиль формата                          : Advanced Simple@L5
Параметр BVOP формата                    : 1
Параметр QPel формата                    : Нет
Параметр GMC формата                     : Без точки перехода
Параметр матрицы формата                 : Default (MPEG)
Идентификатор кодека                     : XVID
Идентификатор кодека/Подсказка           : XviD
Продолжительность                        : 1 ч. 31 м.
Битрейт                                  : 1000 Кбит/сек
Ширина                                   : 640 пикселей
Высота                                   : 480 пикселей
Соотношение сторон                       : 4:3
Частота кадров                           : 25,000 кадров/сек
Цветовое пространство                    : YUV
Субдискретизация насыщенности            : 4:2:0
Битовая глубина                          : 8 бит
Тип развёртки                            : Прогрессивная
Метод сжатия                             : С потерями
Бит/(Пиксели*Кадры)                      : 0.130
Размер потока                            : 656 Мбайт (88%)
Библиотека кодирования                   : XviD 1.2.1 (UTC 2008-12-04)
Аудио
Идентификатор                            : 1
Формат                                   : MPEG Audio
Версия формата                           : Version 1
Профиль формата                          : Layer 3
Идентификатор кодека                     : 55
Идентификатор кодека/Подсказка           : MP3
Продолжительность                        : 1 ч. 31 м.
Вид битрейта                             : Постоянный
Битрейт                                  : 128 Кбит/сек
Каналы                                   : 2 канала
Частота                                  : 48,0 КГц
Метод сжатия                             : С потерями
Размер потока                            : 83,9 Мбайт (11%)
Выравнивание                             : Соединение по промежуткам
Продолжительность промежутка             : 40  мс. (1,00 видеокадр)
Время предзагрузки промежутка            : 504  мс.
Библиотека кодирования                   : LAME3.98r
Настройки программы                      : -m s -V 4 -q 2 -lowpass 17 -b 128
-Скриншоты:
         
         
Вне форума [Профиль] [ЛС]
Показать сообщения:    
Ответить на тему

Текущее время: Сегодня 02:01

Часовой пояс: GMT + 3



Вы не можете начинать темы
Вы не можете отвечать на сообщения
Вы не можете редактировать свои сообщения
Вы не можете удалять свои сообщения
Вы не можете голосовать в опросах
Вы не можете прикреплять файлы к сообщениям
Вы не можете скачивать файлы