Сегодня идет свободное скачивание без начисления Download

Симпсоны / The Simpsons / Сезон: 24 / Серии: 1-22 (22) (Мэтт Гроунинг / Matt Groening) [2012, Мультсериал, комедия, сатира, WEB-DL 1080p] 2xMVO (2x2, VO-production) + Original + Subs (Rus, Eng)

Ответить на тему
 
Автор
Сообщение

Omen ®

Стаж: 4 года 10 месяцев

Сообщений: 190643

Торрент-статистика

Пост 04-Янв-2015 00:00

[Цитировать]

Симпсоны / The Simpsons- Страна: США
Жанр: Мультсериал, комедия, сатира
Продолжительность: ~22 минуты
Год выпуска: 2012
Перевод: Профессиональный (многоголосый закадровый)
Русские субтитры: есть (1-5 серии)-Режиссёр: Мэтт Гроунинг / Matt Groening
Роли озвучивали: Дэн Кастелланета, Джули Кавнер, Нэнси Картрайт, Ярдли Смит, Гарри Ширер, Хэнк Азария и другие.-Описание: Симпсоны живут в вымышленном городе Спрингфилд, со своим обществом и историей. Гомер - отец семейства, который даёт плохие советы и работает инспектором по безопасности на атомной электростанции; Мардж - любящая мать и жена, старается сохранить спокойствие в семье; Барт - 10 летний хулиган; Лиза - философский 8-летний ребёнок; и Мэгги - младенец, который общается посредством соски.-Сэмпл-Качество: WEB-DL 1080p
Формат: MKV
Видео: AVC, 1920x1080, 23,976 fps, ~5000 kbps
Аудио Rus: AC3, 48Chz, 2 ch, 192 kbps (2x2)
Аудио Rus: AC3, 48Chz, 2 ch, 192 kbps (VO-production)
Аудио Eng: AC3, 48Chz, 6 ch, 384 kbps
Субтитры: русские (1-5 серии), английские

Подробные технические данные

GeneralUnique ID : 177164677054798054170088963848248644586 (0x8548ACF83BF32E709BFE5DB838DE53EA)Complete name : C:\The Simpsons (Season 24) WEB-DL 1080p\01. Moonshine River.mkvFormat : MatroskaFormat version : Version 4 / Version 2File size : 881 MiBDuration : 21mn 11sOverall bit rate : 5 810 KbpsEncoded date : UTC 2014-12-30 06:26:52Writing application : mkvmerge v7.4.0 ('Circles') 64bit built on Dec 12 2014 12:19:56Writing library : libebml v1.3.0 + libmatroska v1.4.1Cover : YesDURATION : 00:21:11.808000000NUMBER_OF_FRAMES : 39744NUMBER_OF_BYTES : 30523392_STATISTICS_WRITING_APP : mkvmerge v7.4.0 ('Circles') 64bit built on Dec 12 2014 12:19:56_STATISTICS_WRITING_DATE_UTC : 2014-12-30 06:26:52_STATISTICS_TAGS : BPS DURATION NUMBER_OF_FRAMES NUMBER_OF_BYTES
VideoID : 1Format : AVCFormat/Info : Advanced Video CodecFormat profile : High@L4.0Format settings, CABAC : YesFormat settings, ReFrames : 4 framesCodec ID : V_MPEG4/ISO/AVCDuration : 21mn 11sBit rate : 4 926 KbpsWidth : 1 920 pixelsHeight : 1 080 pixelsDisplay aspect ratio : 16:9Frame rate mode : ConstantFrame rate : 23.976 fpsColor space : YUVChroma subsampling : 4:2:0Bit depth : 8 bitsScan type : ProgressiveBits/(Pixel*Frame) : 0.099Stream size : 747 MiB (85%)Language : EnglishDefault : YesForced : NoColor primaries : BT.709Transfer characteristics : BT.709Matrix coefficients : BT.709
Audio #1ID : 2Format : AC-3Format/Info : Audio Coding 3Mode extension : CM (complete main)Format settings, Endianness : BigCodec ID : A_AC3Duration : 21mn 11sBit rate mode : ConstantBit rate : 192 KbpsChannel(s) : 2 channelsChannel positions : Front: L RSampling rate : 48.0 KHzBit depth : 16 bitsCompression mode : LossyStream size : 29.1 MiB (3%)Title : 2x2Language : RussianDefault : YesForced : No
Audio #2ID : 3Format : AC-3Format/Info : Audio Coding 3Mode extension : CM (complete main)Format settings, Endianness : BigCodec ID : A_AC3Duration : 21mn 11sBit rate mode : ConstantBit rate : 192 KbpsChannel(s) : 2 channelsChannel positions : Front: L RSampling rate : 48.0 KHzBit depth : 16 bitsCompression mode : LossyStream size : 29.1 MiB (3%)Title : VO-productionLanguage : RussianDefault : NoForced : No
Audio #3ID : 4Format : AC-3Format/Info : Audio Coding 3Mode extension : CM (complete main)Format settings, Endianness : BigCodec ID : A_AC3Duration : 21mn 11sBit rate mode : ConstantBit rate : 384 KbpsChannel(s) : 6 channelsChannel positions : Front: L C R, Side: L R, LFESampling rate : 48.0 KHzBit depth : 16 bitsCompression mode : LossyDelay relative to video : 10msStream size : 58.2 MiB (7%)Language : EnglishDefault : NoForced : No
Text #1ID : 5Format : UTF-8Codec ID : S_TEXT/UTF8Codec ID/Info : UTF-8 Plain TextLanguage : RussianDefault : NoForced : No
Text #2ID : 6Format : UTF-8Codec ID : S_TEXT/UTF8Codec ID/Info : UTF-8 Plain TextLanguage : EnglishDefault : NoForced : No

Скриншоты

Список серий

01. Лунный свет на реке (Moonshine River)
02. Домик ужасов на дереве XXIII (Treehouse of Horror XXIII)
03. Приключения в попытке завести ребёнка (Adventures in Baby-Getting)
04. Пропавший Эйб (Gone Abie Gone)
05. Мелочные парни (Penny-Wiseguys)
06. Дерево, растущее в Спрингфилде (A Tree Grows in Springfield)
07. День, когда Земля стала крутой (The Day the Earth Stood Cool)
08. О псине с любовью (To Cur With Love)
09. Гомер проходит подготовку (Homer Goes to Prep School)
10. Мучительное испытание (A Test Before Trying)
11. Поиск опекунов (The Changing of the Guardian)
12. Любовь - это вещь, разбитая на много кусочков (Love is a Many-Splintered Thing)
13. Практически Кирк (Hardly Kirk-ing)
14. Шикарный дедуля (Gorgeous Grampa)
15. Фингал, пожалуйста (Blake-Eyed, Please)
16. Тёмный рыцарь и суд (Dark Knight Court)
17. Чего хотят анимационные женщины (What Animated Women Want)
18. Проповеднические разногласия (Pulpit Friction)
19. Продавец виски (Whiskey Business)
20. Потрясающий обманщик (The Fabulous Faker Boy)
21. Сага о Карле (The Saga of Carl)
22. Опасности в поезде (Dangers on a Train)

Внимание! Раздача ведётся путём добавления новых серий

Внимание! Раздача ведётся путём добавления новых серий; при каждом добавлении создётся новый торрент. Чтобы начать докачку новой серии, пользователям необходимо сделать следующее:
(1) остановить скачивание,
(2) удалить старый торрент у себя из клиента (старые серии удалять не надо),
(3) скачать новый торрент и запустить его у себя в клиенте вместо старого, при этом указать клиенту путь в старую папку куда и должно происходить скачивание новых серий.
Ваш клиент при этом должен произвести хеширование (проверку) старой папки (если не производит сам - помогите ему сделать это), и будет докачивать только те серии, которых у вас ещё нет. Старые серии при этом не удаляются, а продолжают раздаваться!
Eсли вы уже удалили старые серии, то предотвратить повторную закачку старых серий можно, отжав галочку в соответсвующих местах при запуске нового торрента. По возможности, желательно не удалять старые серии как можно дольше, чтобы релизёр не столько продолжал раздавать старые серии, а смог сконцентрироваться на новых.
Вне форума [Профиль] [ЛС]
Показать сообщения:    
Ответить на тему

Текущее время: Сегодня 22:17

Часовой пояс: GMT + 3



Вы не можете начинать темы
Вы не можете отвечать на сообщения
Вы не можете редактировать свои сообщения
Вы не можете удалять свои сообщения
Вы не можете голосовать в опросах
Вы не можете прикреплять файлы к сообщениям
Вы не можете скачивать файлы