Сегодня идет свободное скачивание без начисления Download

Приключения капитана Врунгеля (1976-1979) DVDRip [полная реставрация]

Ответить на тему
 
Автор
Сообщение

Omen ®

Стаж: 4 года 10 месяцев

Сообщений: 190643

Торрент-статистика

Пост 29-Дек-2014 22:33

[Цитировать]

Приключения капитана Врунгеля
(1976-1979)
- Страна: СССР / Студия «Киевнаучфильм»
Оригинальное название: Приключения капитана Врунгеля
Русское название: Приключения капитана Врунгеля
Год выпуска: 1976-1979
Жанр: мультфильм, анимация
Описание фильма:
Приключения капитана Врунгеля — рисованный мультсериал студии «Киевнаучфильм», состоящий из 13 серий. Мультфильм Давида Черкасского был выпущен по сюжету одноимённого романа Андрея Некрасова.
Христофору Бонифатьевичу Врунгелю, известному мореходу, профессору навигации, приходит приглашение участвовать в международной регате. Специально для соревнований помощник Врунгеля — матрос Лом — построил яхту «Победа», но во время отплытия две первые буквы её названия отпали с кормовой доски, и она получила название «Беда».
Используя значительную часть комических сцен из книги, мультсериал имеет совершенно другой центральный сюжет, основанный на похищении Фуксом Венеры Милосской и преследовании «Беды» итальянскими мафиози. Действие происходит не в 1930-х годах, а в 1970-х, и Джулико Бандитто — уже не сержант армии Муссолини, а просто гангстер. В сюжете обыгрываются и пародируются многие реалии и стереотипы времён позднего «застоя».
Режиссер: Давид Черкасский
Роли озвучивали: Зиновий Гердт (Врунгель), Евгений Паперный (Лом, Шеф, директор зоопарка, репортёр, член яхт-клуба), Георгий Кишко (Фукс, таможенный чиновник, почтальон, репортёр, член яхт-клуба), Григорий Шпигель (Агент 00X), Семён Фарада (Джулико Бандитто), Александр Бурмистров (Де Ля Воро Гангстеритто, директор театра, член яхт-клуба), Эдуард Назаров (Капитан «Чёрной Каракатицы»), Вениамин Смехов (Адмирал)

Продолжительность: 02:07:56
Качество видео: DVDRip (полная реставрация изображения и звука)
Формат: AVI
Видео кодек: XviD
Аудио кодек: AC3
Видео: 720x528 (1.36:1), 25 fps, XviD build 50, 2081 kbps avg, 0.22 bit/pixel
Аудио: 48 kHz, AC3 Dolby Digital, 3/2 (L,C,R,l,r) + LFE ch, 448 kbps

Интересные факты и киноляпы:

  • Прототипом капитана Врунгеля был знакомый Некрасова с характерной фамилией Вронский, любитель рассказывать морские истории-небылицы со своим участием. Его фамилия так подходила для главного героя, что первоначально книга и должна была называться «Приключения капитана Вронского», однако из опасения обидеть друга автор был вынужден искать другую.
  • Прототипом одного из главных героев старшего помощника Лома в его повести был курсант морской школы Иван Манн. Фамилия этого персонажа по-немецки означает «человек» (Mann), а по-французски «человек» — «l’homme» (звучит как русское «Лом»).
  • Обилие «ляпов» связано с тем, что фильм, по утверждению самого Давида Черкасского, создавался с рекордной скоростью и времени исправлять многие неточности уже не было. Но обнаружение стольких накладок и вдобавок систематизация некоторых из них говорят лишь о том, что мультфильм очень хороший и что поклонники готовы пересматривать его снова и снова.
  • Почти весь сериал сделан в технике перекладки. (В ряде кадров также использованы вырезки из фотографий, проволоки, нитки.) Исключение (обычная рисованная мультипликация) составляют преимущественно те кадры, где объект движется на зрителя, либо, наоборот, удаляется в глубь экрана, либо панорамируется с разных сторон.
  • У Шефа указательный палец в течение всего фильма отсутствует то на правой, то на левой руке.
  • Усы главного героя, Христофора Бонифатьевича Врунгеля, на протяжении сериала выглядят то чёрными как смоль, то чёрными с проседью, то совсем седыми. Также меняется цвет его фуражки: то белый, то чёрный, то синий, причём оттенки синего — разные.
  • Образы героев мультфильма и отдельные мизансцены создавались во многом с опорой на классические иллюстрации Константина Ротова. Но усы капитану добавлены художником Натальей Гузь, что придаёт мультипликационному Врунгелю вместе с его манерой покуривать трубку и вальяжными, неторопливыми движениями внешнее сходство со Сталиным.
  • Паруса на «Беде» и на «Чёрной Каракатице» периодически пропадают и появляются снова. Видимо, это специальный ход создателей, чтобы в нужных эпизодах сосредоточить внимание зрителя на персонажах. Возможно, что и штурвал на «Беде» временно исчезает по этой же причине. Либо это такой штурвал, который легко переставляется с места на место, раз от выстрелов артиллерийских орудий он пару раз взлетал на воздух, а через минуту снова оказался на палубе.
  • Любопытна конструкция «Чёрной Каракатицы». На более крупных планах это судно напоминает деревянный корабль XVIII в. (причём парус фок — полосатый, чёрный с оранжевым), на общих — современную модель одномачтовой яхты (фок — однотонный коричневый). Нактоуз с компасом перемещается то к носу яхты, то к штурвалу.
  • Количество и расположение замков на футляре контрабаса меняется от кадра к кадру. В конце восьмой серии гангстеры демонстративно взламывают все замки, но через две серии они снова возникают на футляре из ниоткуда. При этом футляр много раз подкидывали и роняли, однако скульптура, как ни странно, не раскололась на куски.
  • Матросы на «Чёрной Каракатице» при первом появлении перед зрителями (3 серия) — одноногие и бородатые, как и капитан. В последующих сериях они «видоизменяются» и остаются такими до конца.
  • Агент Ноль-Ноль-Икс во второй серии — с огромным носом, без усов и с золотым зубом во рту. Начиная с четвёртой серии, его нос становится уже, появляются усики (которые, впрочем, то вновь пропадают, то делаются гуще), а золотой зуб больше не виден.
  • Третья серия заканчивается эпизодом, где Джулико и Де Ля Воро получают задание от Шефа. В начале четвёртой серии, когда этот эпизод повторяется, оба гангстера одеты уже иначе. В таких костюмах они остаются до конца фильма. У Гангстеритто тоже в паре кадров исчезают усы.
  • В продолжение всей регаты турецкие моряки перемещаются с яхты на яхту, если судить по цвету парусов, палубы и бортов.
  • По поводу головных уборов: а) второстепенные бандиты в замке интересным образом меняются шляпами (9 серия); б) ушанка на голове Фукса становится его обычной шляпой и наоборот (9 серия); в) канотье директора театра превращается в широкополую ковбойскую шляпу и обратно (11 серия).
  • Наблюдается неопределённость с цветом перчаток и у Агента, и у Гангстеритто, и у второстепенных бандитов в замке, и у капитана «Чёрной Каракатицы», и у его матросов.
  • Странно ведут себя сигары в зубах Арчибальда Денди. Во второй серии спикер встаёт с сигарой во рту, и, как только он начинает речь, сигара куда-то исчезает. В последней серии (где выясняется, что спикер и Шеф — одно лицо) мистер Денди двумя пальцами вынимает сигару изо рта и говорит первые слова «А известно ли…». В следующем кадре (губы крупным планом) она снова оказывается меж зубов.
  • На старте регаты (3 серия) спикер спрашивает: «Все яхты готовы?». Сразу после этих слов камера показывает, что все участники гонки по-прежнему спокойненько стоят в ряд на набережной. Кроме того: а) яхты в разных кадрах повёрнуты к пристани то носом, то кормой; б) строй гвардейцев стоит к морю то лицом, то спиной; в) соседями пиратов слева оказываются то турки, то какие-то другие моряки.
  • По сюжету Фукс в начале регаты ещё не знает морских команд и названий снастей. Так, при команде «Набить грот!» (что значит «натянуть главный судовой парус») он решает, что должен «наполнить до отказа какую-то пещеру». Тем не менее, несколькими кадрами раньше новый матрос довольно ловко поднимает парус грот вместе с капитаном и старпомом. Собственно, это не совсем ляп: человек может знать, что такое «паруса» вообще, но не знать, как каждый из этих парусов называется у моряков.
  • Многие морские термины, морские жаргонизмы и специальные конструкции (не только вышеупомянутое «набить грот», но также «поворот оверштаг», «травить цепь», «земля по носу») оказываются понятны только тем зрителям, которые уже читали одноимённую повесть Андрея Некрасова.
  • Во время манёвров яхта «Беда» делает переворот оверкиль. Когда дым рассеивается, зрители видят перевёрнутую яхту с трубкой, торчащей над килем, как перископ над подлодкой. Затем камера показывает крупным планом, как Врунгель, притаившийся за килем, поднимает эту трубку осторожно и не сразу. Это просто не очень удачный монтаж.
  • Море за бортом в подавляющем большинстве кадров сериала — настоящее, а не нарисованное. Это не единственный тип совмещения мультипликации и кино в сериале: во второй серии Врунгель и Лом бегут по всамделишному лесу, в седьмой серии автомобиль едет по улицам взаправдашнего города, в отдельных сериях фоном служит настоящее небо (чёрно-белые вставки из кинохроники не в счёт). Также в мульткадр оказываются вмонтированы настоящие огонь и / или дым.
  • В упомянутом выше горящем лесу заметны фигуры пожарных.
  • Гангстеры садятся в машину явно на территории Египта. Но в следующем эпизоде они едут по автодорогам, очень похожим на «Лабиринт МакАртура» в Сан-Франциско.
  • Джулико и Де Ля Воро выходят на связь с Шефом, сидя в автомобиле в своей обычной одежде. Когда Шеф включает видеотелефон, оба бандита появляются на экране в арабских нарядах (которые надевали раньше для маскировки) на фоне каменной стены.
  • Выстраивая декорации к Празднику Нептуна, Врунгель раскатывает на палубе яхты широкий ковёр в клетку. Это может означать только то, что мачту вместе с парусами куда-то убрали на время. Врунгель-«Нептун» предстаёт перед своими матросами в клоунской маске, с классической цирковой репликой «Ха-ха! Вот он я!» и показывает настоящее цирковое представление с фокусами и прочими трюками (заметим, что на флажках вперемежку с Нептунами и русалками нарисованы клоуны, силачи и тигры). Но под конец праздника у капитана появляется искусственная борода, что больше соответствует традиционному образу морского бога.
  • В девятой серии Агент, приземляясь на остров Шефа, держит зонт в правой руке. В следующем кадре зонт перемещается в левую руку, а в правой оказывается неизвестно откуда взявшийся саквояж.
  • Кашалот относится к зубатым китам. Когда кашалот в мультфильме чихал, в его пасти действительно можно было увидеть крупные зубы. И только в одном кадре, где рот кашалота был слегка приоткрыт, в нём виднелся китовый ус, как, например, у гренландского кита или финвала.
  • В десятой серии, когда гангстеры замечают издалека остров с вулканом, из кратера явственно идёт дым. Тем не менее, на крупном плане оказывается, что жерло заткнуто пробкой. Вулкан вообще необычный: в нём есть топка, а на верх кратера ведут ступени. Это при том, что остров отчётливо назвали «необитаемым».
  • Кадры, сопровождающие выстрел из пушки (надпись «BUMM!», звёздочки, клубы разноцветного дыма и разлетающийся часовой механизм), впоследствии использовались Давидом Черкасским в трёх эпизодах мультсериала «Доктор Айболит».
  • Некоторые предметы имеют обыкновение менять размеры относительно персонажей. Прежде всего это относится к футляру контрабаса и к находящейся внутри скульптуре. Другой характерный пример — дверь, на которой плывут Врунгель и Фукс после взрыва вулкана. Также примечательна трещина на поверхности острова с вулканом: она делается то шире, то уже.
  • В «Рассказе Фукса» снова меняется порядок яхт на старте регаты. У капитана «Чёрной Каракатицы» нет правой ноги, а не левой, и появляется повязка на глазу.

Цитаты из мультфильма:

— Эй, на буксире, прими конец, чёрт побери!
Как вы яхту назовёте, так она и поплывёт.
— Недаром я назвал нашу яхту «Победа».
— Эй, на «Беде»! Счастливого плавания!
— Произвести измерения температуры забортной воды не представляется возможным из-за отсутствия таковой!
Я там и тут — куда пошлют.
А посылают часто.
— Фукс, какой же Вы, к дьяволу, матрос?!
— А я не матрос…
— Но позвольте! Лом сказал, что Вы в картах умеете разбираться…
— О, это сколько угодно: карты — мой хлеб. Только не морские, а игральные карты.
— О Боже! Что он делает?! Крэтино! (дальше следует непереводимая игра слов с использованием итальянских идиоматических выражений. Звучит это примерно так): Тенти остатенти! Дольварес дель культе, дер фрути де дьяволо! [редиска] апире! Пароле бова вита, дольче вита эль финита! Мама мия, квод ми терабе(н)тте…
— Ва бене…
— Разрешите доложить, Христофор Бонифатьич. По-моему, дело — табак!
— Совершенно справедливо. Закуривай, ребята!
— Шеф, это Вы? Это я — Фукс… Опять всё сорвалось!.. Пусть меня завтра ждут в пирамиде Хеопса у 8-й мумии, 3-й коридор налево… Шеф, у меня больше нет сил!..
— Советую поискать их, Фукс, если не хотите, чтобы из Вас тоже сделали мумию.
— Один крокодил. Два крокодила. Три крокодила… Пятьдесят крокодилов… Шестьдесят крокодилов…
— Бредит, бедняга. Похоже на тропическую лихорадку!
— Аврал! Всех крокодилов за борт!
— Чёрт подери, из-за Фукса мы ничего не можем сделать! … Головы раскалываются…
— Если вы не хотите лишиться ваших голов навсегда, берите товар любым способом!
— Отставить макать капитана!
— Есть оставить макать капитана!
— Спасите, спасите! Я тону! Ну тону же я, не видите, что ли?
А вот, понимаете… гулял по берегу, налетел лёгкий ветерок, и меня унесло в море. И вот я перед вами…
— Считаю своим долгом сообщить Вам, что произошла маленькая ошибка. Мы в некотором роде не совсем гавайцы. Скорее даже, совсем не гавайцы…
— Ой, что было, Шеф, что было! Это было так интересно!
— Мы преследовали «Беду» в Индийском, Атлантическом, эээ… и Тихом океане…
Наконец мы загнали проклятую «Беду» на необитаемый остров… И, чтобы замести следы, разнесли островок вдребезги!.. Ва бене!
— А ну-ка, покажите товар… Простите, вы кого хотели обмануть?
Да я вас измочалю, сотру в порошок, поджарю на медленном огне… Впрочем, я придумаю для вас кое-что похуже. Я вышвырну вас, и вам снова придётся стать честными людьми.
— Только не это! Только не это, Шеф!

MediaInfo (детальная информация о файле):

Код:
Общее
Полное имя                       : C:\Users\Admin\Downloads\Приключения капитана Врунгеля (1976-1979) DVDRip\01.avi
Формат                           : AVI
Формат/Информация                : Audio Video Interleave
Размер файла                     : 176 Мбайт
Продолжительность                : 9 м. 45 с.
Общий поток                      : 2519 Кбит/сек
Программа кодирования            : VirtualDubMod 1.5.10.2 (build 2540/release)
Библиотека кодирования           : VirtualDubMod build 2540/release
Видео
Идентификатор                    : 0
Формат                           : MPEG-4 Visual
Профиль формата                  : Advanced Simple@L5
Параметр BVOP формата            : 1
Параметр QPel формата            : Нет
Параметр GMC формата             : Без точки перехода
Параметр матрицы формата         : Default (MPEG)
Идентификатор кодека             : XVID
Идентификатор кодека/Подсказка   : XviD
Продолжительность                : 9 м. 45 с.
Битрейт                          : 2061 Кбит/сек
Ширина                           : 720 пикс.
Высота                           : 528 пикс.
Соотношение сторон               : 4:3
Частота кадров                   : 25,000 кадр/сек
Цветовое пространство            : YUV
Подвыборка цветности             : 4:2:0
Битовая глубина                  : 8 бит
Тип развёртки                    : Прогрессивная
Метод сжатия                     : С потерями
Бит/(Пиксели*Кадры)              : 0.217
Размер потока                    : 144 Мбайт (82%)
Библиотека кодирования           : XviD 1.2.1 (UTC 2008-12-04)
Аудио
Идентификатор                    : 1
Формат                           : AC-3
Формат/Информация                : Audio Coding 3
Расширение режима                : CM (complete main)
Идентификатор кодека             : 2000
Продолжительность                : 9 м. 45 с.
Вид битрейта                     : Постоянный
Битрейт                          : 448 Кбит/сек
Канал(ы)                         : 6 канала(ов)
Расположение каналов             : Front: L C R, Side: L R, LFE
Частота                          : 48,0 КГц
Битовая глубина                  : 16 бит
Метод сжатия                     : С потерями
Размер потока                    : 31,3 Мбайт (18%)
Выравнивание                     : Разделение по промежуткам
Продолжительность промежутка     : 40  мс. (1,00 видеокадр)
Время предзагрузки промежутка    : 500 ms
Общее
Полное имя                       : C:\Users\Admin\Downloads\Приключения капитана Врунгеля (1976-1979) DVDRip\02.avi
Формат                           : AVI
Формат/Информация                : Audio Video Interleave
Размер файла                     : 176 Мбайт
Продолжительность                : 9 м. 37 с.
Общий поток                      : 2553 Кбит/сек
Программа кодирования            : VirtualDubMod 1.5.10.2 (build 2540/release)
Библиотека кодирования           : VirtualDubMod build 2540/release
Видео
Идентификатор                    : 0
Формат                           : MPEG-4 Visual
Профиль формата                  : Advanced Simple@L5
Параметр BVOP формата            : 1
Параметр QPel формата            : Нет
Параметр GMC формата             : Без точки перехода
Параметр матрицы формата         : Default (MPEG)
Идентификатор кодека             : XVID
Идентификатор кодека/Подсказка   : XviD
Продолжительность                : 9 м. 37 с.
Битрейт                          : 2096 Кбит/сек
Ширина                           : 720 пикс.
Высота                           : 528 пикс.
Соотношение сторон               : 4:3
Частота кадров                   : 25,000 кадр/сек
Цветовое пространство            : YUV
Подвыборка цветности             : 4:2:0
Битовая глубина                  : 8 бит
Тип развёртки                    : Прогрессивная
Метод сжатия                     : С потерями
Бит/(Пиксели*Кадры)              : 0.220
Размер потока                    : 144 Мбайт (82%)
Библиотека кодирования           : XviD 1.2.1 (UTC 2008-12-04)
Аудио
Идентификатор                    : 1
Формат                           : AC-3
Формат/Информация                : Audio Coding 3
Расширение режима                : CM (complete main)
Идентификатор кодека             : 2000
Продолжительность                : 9 м. 37 с.
Вид битрейта                     : Постоянный
Битрейт                          : 448 Кбит/сек
Канал(ы)                         : 6 канала(ов)
Расположение каналов             : Front: L C R, Side: L R, LFE
Частота                          : 48,0 КГц
Битовая глубина                  : 16 бит
Метод сжатия                     : С потерями
Размер потока                    : 30,9 Мбайт (18%)
Выравнивание                     : Разделение по промежуткам
Продолжительность промежутка     : 40  мс. (1,00 видеокадр)
Время предзагрузки промежутка    : 500 ms
Общее
Полное имя                       : C:\Users\Admin\Downloads\Приключения капитана Врунгеля (1976-1979) DVDRip\03.avi
Формат                           : AVI
Формат/Информация                : Audio Video Interleave
Размер файла                     : 173 Мбайт
Продолжительность                : 9 м. 30 с.
Общий поток                      : 2539 Кбит/сек
Программа кодирования            : VirtualDubMod 1.5.10.2 (build 2540/release)
Библиотека кодирования           : VirtualDubMod build 2540/release
Видео
Идентификатор                    : 0
Формат                           : MPEG-4 Visual
Профиль формата                  : Advanced Simple@L5
Параметр BVOP формата            : 1
Параметр QPel формата            : Нет
Параметр GMC формата             : Без точки перехода
Параметр матрицы формата         : Default (MPEG)
Идентификатор кодека             : XVID
Идентификатор кодека/Подсказка   : XviD
Продолжительность                : 9 м. 30 с.
Битрейт                          : 2081 Кбит/сек
Ширина                           : 720 пикс.
Высота                           : 528 пикс.
Соотношение сторон               : 4:3
Частота кадров                   : 25,000 кадр/сек
Цветовое пространство            : YUV
Подвыборка цветности             : 4:2:0
Битовая глубина                  : 8 бит
Тип развёртки                    : Прогрессивная
Метод сжатия                     : С потерями
Бит/(Пиксели*Кадры)              : 0.219
Размер потока                    : 141 Мбайт (82%)
Библиотека кодирования           : XviD 1.2.1 (UTC 2008-12-04)
Аудио
Идентификатор                    : 1
Формат                           : AC-3
Формат/Информация                : Audio Coding 3
Расширение режима                : CM (complete main)
Идентификатор кодека             : 2000
Продолжительность                : 9 м. 30 с.
Вид битрейта                     : Постоянный
Битрейт                          : 448 Кбит/сек
Канал(ы)                         : 6 канала(ов)
Расположение каналов             : Front: L C R, Side: L R, LFE
Частота                          : 48,0 КГц
Битовая глубина                  : 16 бит
Метод сжатия                     : С потерями
Размер потока                    : 30,5 Мбайт (18%)
Выравнивание                     : Разделение по промежуткам
Продолжительность промежутка     : 40  мс. (1,00 видеокадр)
Время предзагрузки промежутка    : 500 ms
Общее
Полное имя                       : C:\Users\Admin\Downloads\Приключения капитана Врунгеля (1976-1979) DVDRip\04.avi
Формат                           : AVI
Формат/Информация                : Audio Video Interleave
Размер файла                     : 185 Мбайт
Продолжительность                : 10 м.
Общий поток                      : 2538 Кбит/сек
Программа кодирования            : VirtualDubMod 1.5.10.2 (build 2540/release)
Библиотека кодирования           : VirtualDubMod build 2540/release
Видео
Идентификатор                    : 0
Формат                           : MPEG-4 Visual
Профиль формата                  : Advanced Simple@L5
Параметр BVOP формата            : 1
Параметр QPel формата            : Нет
Параметр GMC формата             : Без точки перехода
Параметр матрицы формата         : Default (MPEG)
Идентификатор кодека             : XVID
Идентификатор кодека/Подсказка   : XviD
Продолжительность                : 10 м.
Битрейт                          : 2081 Кбит/сек
Ширина                           : 720 пикс.
Высота                           : 528 пикс.
Соотношение сторон               : 4:3
Частота кадров                   : 25,000 кадр/сек
Цветовое пространство            : YUV
Подвыборка цветности             : 4:2:0
Битовая глубина                  : 8 бит
Тип развёртки                    : Прогрессивная
Метод сжатия                     : С потерями
Бит/(Пиксели*Кадры)              : 0.219
Размер потока                    : 151 Мбайт (82%)
Библиотека кодирования           : XviD 1.2.1 (UTC 2008-12-04)
Аудио
Идентификатор                    : 1
Формат                           : AC-3
Формат/Информация                : Audio Coding 3
Расширение режима                : CM (complete main)
Идентификатор кодека             : 2000
Продолжительность                : 10 м.
Вид битрейта                     : Постоянный
Битрейт                          : 448 Кбит/сек
Канал(ы)                         : 6 канала(ов)
Расположение каналов             : Front: L C R, Side: L R, LFE
Частота                          : 48,0 КГц
Битовая глубина                  : 16 бит
Метод сжатия                     : С потерями
Размер потока                    : 32,6 Мбайт (18%)
Выравнивание                     : Разделение по промежуткам
Продолжительность промежутка     : 40  мс. (1,00 видеокадр)
Время предзагрузки промежутка    : 500 ms
Общее
Полное имя                       : C:\Users\Admin\Downloads\Приключения капитана Врунгеля (1976-1979) DVDRip\05.avi
Формат                           : AVI
Формат/Информация                : Audio Video Interleave
Размер файла                     : 168 Мбайт
Продолжительность                : 9 м. 16 с.
Общий поток                      : 2531 Кбит/сек
Программа кодирования            : VirtualDubModRus 1.5.10.2 (build 2542/release)
Библиотека кодирования           : VirtualDubMod build 2542/release
Видео
Идентификатор                    : 0
Формат                           : MPEG-4 Visual
Профиль формата                  : Advanced Simple@L5
Параметр BVOP формата            : 1
Параметр QPel формата            : Нет
Параметр GMC формата             : Без точки перехода
Параметр матрицы формата         : Default (MPEG)
Идентификатор кодека             : XVID
Идентификатор кодека/Подсказка   : XviD
Продолжительность                : 9 м. 16 с.
Битрейт                          : 2074 Кбит/сек
Ширина                           : 720 пикс.
Высота                           : 528 пикс.
Соотношение сторон               : 4:3
Частота кадров                   : 25,000 кадр/сек
Цветовое пространство            : YUV
Подвыборка цветности             : 4:2:0
Битовая глубина                  : 8 бит
Тип развёртки                    : Прогрессивная
Метод сжатия                     : С потерями
Бит/(Пиксели*Кадры)              : 0.218
Размер потока                    : 138 Мбайт (82%)
Библиотека кодирования           : XviD 1.2.1 (UTC 2008-12-04)
Аудио
Идентификатор                    : 1
Формат                           : AC-3
Формат/Информация                : Audio Coding 3
Расширение режима                : CM (complete main)
Идентификатор кодека             : 2000
Продолжительность                : 9 м. 16 с.
Вид битрейта                     : Постоянный
Битрейт                          : 448 Кбит/сек
Канал(ы)                         : 6 канала(ов)
Расположение каналов             : Front: L C R, Side: L R, LFE
Частота                          : 48,0 КГц
Битовая глубина                  : 16 бит
Метод сжатия                     : С потерями
Задержка видео                   : 350 мс.
Размер потока                    : 29,7 Мбайт (18%)
Выравнивание                     : Разделение по промежуткам
Продолжительность промежутка     : 40  мс. (1,00 видеокадр)
Время предзагрузки промежутка    : 500 ms
Общее
Полное имя                       : C:\Users\Admin\Downloads\Приключения капитана Врунгеля (1976-1979) DVDRip\06.avi
Формат                           : AVI
Формат/Информация                : Audio Video Interleave
Размер файла                     : 179 Мбайт
Продолжительность                : 9 м. 51 с.
Общий поток                      : 2542 Кбит/сек
Программа кодирования            : VirtualDubModRus 1.5.10.2 (build 2542/release)
Библиотека кодирования           : VirtualDubMod build 2542/release
Видео
Идентификатор                    : 0
Формат                           : MPEG-4 Visual
Профиль формата                  : Advanced Simple@L5
Параметр BVOP формата            : 1
Параметр QPel формата            : Нет
Параметр GMC формата             : Без точки перехода
Параметр матрицы формата         : Default (MPEG)
Идентификатор кодека             : XVID
Идентификатор кодека/Подсказка   : XviD
Продолжительность                : 9 м. 51 с.
Битрейт                          : 2084 Кбит/сек
Ширина                           : 720 пикс.
Высота                           : 528 пикс.
Соотношение сторон               : 4:3
Частота кадров                   : 25,000 кадр/сек
Цветовое пространство            : YUV
Подвыборка цветности             : 4:2:0
Битовая глубина                  : 8 бит
Тип развёртки                    : Прогрессивная
Метод сжатия                     : С потерями
Бит/(Пиксели*Кадры)              : 0.219
Размер потока                    : 147 Мбайт (82%)
Библиотека кодирования           : XviD 1.2.1 (UTC 2008-12-04)
Аудио
Идентификатор                    : 1
Формат                           : AC-3
Формат/Информация                : Audio Coding 3
Расширение режима                : CM (complete main)
Идентификатор кодека             : 2000
Продолжительность                : 9 м. 51 с.
Вид битрейта                     : Постоянный
Битрейт                          : 448 Кбит/сек
Канал(ы)                         : 6 канала(ов)
Расположение каналов             : Front: L C R, Side: L R, LFE
Частота                          : 48,0 КГц
Битовая глубина                  : 16 бит
Метод сжатия                     : С потерями
Задержка видео                   : 100 мс.
Размер потока                    : 31,6 Мбайт (18%)
Выравнивание                     : Разделение по промежуткам
Продолжительность промежутка     : 40  мс. (1,00 видеокадр)
Время предзагрузки промежутка    : 500 ms
Общее
Полное имя                       : C:\Users\Admin\Downloads\Приключения капитана Врунгеля (1976-1979) DVDRip\07.avi
Формат                           : AVI
Формат/Информация                : Audio Video Interleave
Размер файла                     : 183 Мбайт
Продолжительность                : 10 м.
Общий поток                      : 2529 Кбит/сек
Программа кодирования            : VirtualDubMod 1.5.10.2 (build 2540/release)
Библиотека кодирования           : VirtualDubMod build 2540/release
Видео
Идентификатор                    : 0
Формат                           : MPEG-4 Visual
Профиль формата                  : Advanced Simple@L5
Параметр BVOP формата            : 1
Параметр QPel формата            : Нет
Параметр GMC формата             : Без точки перехода
Параметр матрицы формата         : Default (MPEG)
Идентификатор кодека             : XVID
Идентификатор кодека/Подсказка   : XviD
Продолжительность                : 10 м.
Битрейт                          : 2071 Кбит/сек
Ширина                           : 720 пикс.
Высота                           : 528 пикс.
Соотношение сторон               : 4:3
Частота кадров                   : 25,000 кадр/сек
Цветовое пространство            : YUV
Подвыборка цветности             : 4:2:0
Битовая глубина                  : 8 бит
Тип развёртки                    : Прогрессивная
Метод сжатия                     : С потерями
Бит/(Пиксели*Кадры)              : 0.218
Размер потока                    : 150 Мбайт (82%)
Библиотека кодирования           : XviD 1.2.1 (UTC 2008-12-04)
Аудио
Идентификатор                    : 1
Формат                           : AC-3
Формат/Информация                : Audio Coding 3
Расширение режима                : CM (complete main)
Идентификатор кодека             : 2000
Продолжительность                : 10 м.
Вид битрейта                     : Постоянный
Битрейт                          : 448 Кбит/сек
Канал(ы)                         : 6 канала(ов)
Расположение каналов             : Front: L C R, Side: L R, LFE
Частота                          : 48,0 КГц
Битовая глубина                  : 16 бит
Метод сжатия                     : С потерями
Размер потока                    : 32,4 Мбайт (18%)
Выравнивание                     : Разделение по промежуткам
Продолжительность промежутка     : 40  мс. (1,00 видеокадр)
Время предзагрузки промежутка    : 500 ms
Общее
Полное имя                       : C:\Users\Admin\Downloads\Приключения капитана Врунгеля (1976-1979) DVDRip\08.avi
Формат                           : AVI
Формат/Информация                : Audio Video Interleave
Размер файла                     : 183 Мбайт
Продолжительность                : 10 м.
Общий поток                      : 2538 Кбит/сек
Программа кодирования            : VirtualDubModRus 1.5.10.2 (build 2542/release)
Библиотека кодирования           : VirtualDubMod build 2542/release
Видео
Идентификатор                    : 0
Формат                           : MPEG-4 Visual
Профиль формата                  : Advanced Simple@L5
Параметр BVOP формата            : 1
Параметр QPel формата            : Нет
Параметр GMC формата             : Без точки перехода
Параметр матрицы формата         : Default (MPEG)
Идентификатор кодека             : XVID
Идентификатор кодека/Подсказка   : XviD
Продолжительность                : 10 м.
Битрейт                          : 2080 Кбит/сек
Ширина                           : 720 пикс.
Высота                           : 528 пикс.
Соотношение сторон               : 4:3
Частота кадров                   : 25,000 кадр/сек
Цветовое пространство            : YUV
Подвыборка цветности             : 4:2:0
Битовая глубина                  : 8 бит
Тип развёртки                    : Прогрессивная
Метод сжатия                     : С потерями
Бит/(Пиксели*Кадры)              : 0.219
Размер потока                    : 150 Мбайт (82%)
Библиотека кодирования           : XviD 1.2.1 (UTC 2008-12-04)
Аудио
Идентификатор                    : 1
Формат                           : AC-3
Формат/Информация                : Audio Coding 3
Расширение режима                : CM (complete main)
Идентификатор кодека             : 2000
Продолжительность                : 10 м.
Вид битрейта                     : Постоянный
Битрейт                          : 448 Кбит/сек
Канал(ы)                         : 6 канала(ов)
Расположение каналов             : Front: L C R, Side: L R, LFE
Частота                          : 48,0 КГц
Битовая глубина                  : 16 бит
Метод сжатия                     : С потерями
Задержка видео                   : 24 мс.
Размер потока                    : 32,3 Мбайт (18%)
Выравнивание                     : Разделение по промежуткам
Продолжительность промежутка     : 40  мс. (1,00 видеокадр)
Время предзагрузки промежутка    : 500 ms
Общее
Полное имя                       : C:\Users\Admin\Downloads\Приключения капитана Врунгеля (1976-1979) DVDRip\09.avi
Формат                           : AVI
Формат/Информация                : Audio Video Interleave
Размер файла                     : 178 Мбайт
Продолжительность                : 9 м. 47 с.
Общий поток                      : 2540 Кбит/сек
Программа кодирования            : VirtualDubModRus 1.5.10.2 (build 2542/release)
Библиотека кодирования           : VirtualDubMod build 2542/release
Видео
Идентификатор                    : 0
Формат                           : MPEG-4 Visual
Профиль формата                  : Advanced Simple@L5
Параметр BVOP формата            : 1
Параметр QPel формата            : Нет
Параметр GMC формата             : Без точки перехода
Параметр матрицы формата         : Default (MPEG)
Идентификатор кодека             : XVID
Идентификатор кодека/Подсказка   : XviD
Продолжительность                : 9 м. 47 с.
Битрейт                          : 2082 Кбит/сек
Ширина                           : 720 пикс.
Высота                           : 528 пикс.
Соотношение сторон               : 4:3
Частота кадров                   : 25,000 кадр/сек
Цветовое пространство            : YUV
Подвыборка цветности             : 4:2:0
Битовая глубина                  : 8 бит
Тип развёртки                    : Прогрессивная
Метод сжатия                     : С потерями
Бит/(Пиксели*Кадры)              : 0.219
Размер потока                    : 146 Мбайт (82%)
Библиотека кодирования           : XviD 1.2.1 (UTC 2008-12-04)
Аудио
Идентификатор                    : 1
Формат                           : AC-3
Формат/Информация                : Audio Coding 3
Расширение режима                : CM (complete main)
Идентификатор кодека             : 2000
Продолжительность                : 9 м. 46 с.
Вид битрейта                     : Постоянный
Битрейт                          : 448 Кбит/сек
Канал(ы)                         : 6 канала(ов)
Расположение каналов             : Front: L C R, Side: L R, LFE
Частота                          : 48,0 КГц
Битовая глубина                  : 16 бит
Метод сжатия                     : С потерями
Задержка видео                   : 10 мс.
Размер потока                    : 31,3 Мбайт (18%)
Выравнивание                     : Разделение по промежуткам
Продолжительность промежутка     : 40  мс. (1,00 видеокадр)
Время предзагрузки промежутка    : 500 ms
Общее
Полное имя                       : C:\Users\Admin\Downloads\Приключения капитана Врунгеля (1976-1979) DVDRip\10.avi
Формат                           : AVI
Формат/Информация                : Audio Video Interleave
Размер файла                     : 185 Мбайт
Продолжительность                : 10 м.
Общий поток                      : 2537 Кбит/сек
Программа кодирования            : VirtualDubModRus 1.5.10.2 (build 2542/release)
Библиотека кодирования           : VirtualDubMod build 2542/release
Видео
Идентификатор                    : 0
Формат                           : MPEG-4 Visual
Профиль формата                  : Advanced Simple@L5
Параметр BVOP формата            : 1
Параметр QPel формата            : Нет
Параметр GMC формата             : Без точки перехода
Параметр матрицы формата         : Default (MPEG)
Идентификатор кодека             : XVID
Идентификатор кодека/Подсказка   : XviD
Продолжительность                : 10 м.
Битрейт                          : 2079 Кбит/сек
Ширина                           : 720 пикс.
Высота                           : 528 пикс.
Соотношение сторон               : 4:3
Частота кадров                   : 25,000 кадр/сек
Цветовое пространство            : YUV
Подвыборка цветности             : 4:2:0
Битовая глубина                  : 8 бит
Тип развёртки                    : Прогрессивная
Метод сжатия                     : С потерями
Бит/(Пиксели*Кадры)              : 0.219
Размер потока                    : 151 Мбайт (82%)
Библиотека кодирования           : XviD 1.2.1 (UTC 2008-12-04)
Аудио
Идентификатор                    : 1
Формат                           : AC-3
Формат/Информация                : Audio Coding 3
Расширение режима                : CM (complete main)
Идентификатор кодека             : 2000
Продолжительность                : 10 м.
Вид битрейта                     : Постоянный
Битрейт                          : 448 Кбит/сек
Канал(ы)                         : 6 канала(ов)
Расположение каналов             : Front: L C R, Side: L R, LFE
Частота                          : 48,0 КГц
Битовая глубина                  : 16 бит
Метод сжатия                     : С потерями
Задержка видео                   : 24 мс.
Размер потока                    : 32,6 Мбайт (18%)
Выравнивание                     : Разделение по промежуткам
Продолжительность промежутка     : 40  мс. (1,00 видеокадр)
Время предзагрузки промежутка    : 500 ms
Общее
Полное имя                       : C:\Users\Admin\Downloads\Приключения капитана Врунгеля (1976-1979) DVDRip\11.avi
Формат                           : AVI
Формат/Информация                : Audio Video Interleave
Размер файла                     : 175 Мбайт
Продолжительность                : 9 м. 37 с.
Общий поток                      : 2534 Кбит/сек
Программа кодирования            : VirtualDubModRus 1.5.10.2 (build 2542/release)
Библиотека кодирования           : VirtualDubMod build 2542/release
Видео
Идентификатор                    : 0
Формат                           : MPEG-4 Visual
Профиль формата                  : Advanced Simple@L5
Параметр BVOP формата            : 1
Параметр QPel формата            : Нет
Параметр GMC формата             : Без точки перехода
Параметр матрицы формата         : Default (MPEG)
Идентификатор кодека             : XVID
Идентификатор кодека/Подсказка   : XviD
Продолжительность                : 9 м. 37 с.
Битрейт                          : 2077 Кбит/сек
Ширина                           : 720 пикс.
Высота                           : 528 пикс.
Соотношение сторон               : 4:3
Частота кадров                   : 25,000 кадр/сек
Цветовое пространство            : YUV
Подвыборка цветности             : 4:2:0
Битовая глубина                  : 8 бит
Тип развёртки                    : Прогрессивная
Метод сжатия                     : С потерями
Бит/(Пиксели*Кадры)              : 0.219
Размер потока                    : 143 Мбайт (82%)
Библиотека кодирования           : XviD 1.2.1 (UTC 2008-12-04)
Аудио
Идентификатор                    : 1
Формат                           : AC-3
Формат/Информация                : Audio Coding 3
Расширение режима                : CM (complete main)
Идентификатор кодека             : 2000
Продолжительность                : 9 м. 37 с.
Вид битрейта                     : Постоянный
Битрейт                          : 448 Кбит/сек
Канал(ы)                         : 6 канала(ов)
Расположение каналов             : Front: L C R, Side: L R, LFE
Частота                          : 48,0 КГц
Битовая глубина                  : 16 бит
Метод сжатия                     : С потерями
Задержка видео                   : 16 мс.
Размер потока                    : 30,8 Мбайт (18%)
Выравнивание                     : Разделение по промежуткам
Продолжительность промежутка     : 40  мс. (1,00 видеокадр)
Время предзагрузки промежутка    : 500 ms
Общее
Полное имя                       : C:\Users\Admin\Downloads\Приключения капитана Врунгеля (1976-1979) DVDRip\12.avi
Формат                           : AVI
Формат/Информация                : Audio Video Interleave
Размер файла                     : 181 Мбайт
Продолжительность                : 9 м. 55 с.
Общий поток                      : 2545 Кбит/сек
Программа кодирования            : VirtualDubMod 1.5.10.2 (build 2540/release)
Библиотека кодирования           : VirtualDubMod build 2540/release
Видео
Идентификатор                    : 0
Формат                           : MPEG-4 Visual
Профиль формата                  : Advanced Simple@L5
Параметр BVOP формата            : 1
Параметр QPel формата            : Нет
Параметр GMC формата             : Без точки перехода
Параметр матрицы формата         : Default (MPEG)
Идентификатор кодека             : XVID
Идентификатор кодека/Подсказка   : XviD
Продолжительность                : 9 м. 55 с.
Битрейт                          : 2087 Кбит/сек
Ширина                           : 720 пикс.
Высота                           : 528 пикс.
Соотношение сторон               : 4:3
Частота кадров                   : 25,000 кадр/сек
Цветовое пространство            : YUV
Подвыборка цветности             : 4:2:0
Битовая глубина                  : 8 бит
Тип развёртки                    : Прогрессивная
Метод сжатия                     : С потерями
Бит/(Пиксели*Кадры)              : 0.220
Размер потока                    : 148 Мбайт (82%)
Библиотека кодирования           : XviD 1.2.1 (UTC 2008-12-04)
Аудио
Идентификатор                    : 1
Формат                           : AC-3
Формат/Информация                : Audio Coding 3
Расширение режима                : CM (complete main)
Идентификатор кодека             : 2000
Продолжительность                : 9 м. 55 с.
Вид битрейта                     : Постоянный
Битрейт                          : 448 Кбит/сек
Канал(ы)                         : 6 канала(ов)
Расположение каналов             : Front: L C R, Side: L R, LFE
Частота                          : 48,0 КГц
Битовая глубина                  : 16 бит
Метод сжатия                     : С потерями
Размер потока                    : 31,8 Мбайт (18%)
Выравнивание                     : Разделение по промежуткам
Продолжительность промежутка     : 40  мс. (1,00 видеокадр)
Время предзагрузки промежутка    : 500 ms
Общее
Полное имя                       : C:\Users\Admin\Downloads\Приключения капитана Врунгеля (1976-1979) DVDRip\13.avi
Формат                           : AVI
Формат/Информация                : Audio Video Interleave
Размер файла                     : 184 Мбайт
Продолжительность                : 10 м.
Общий поток                      : 2538 Кбит/сек
Программа кодирования            : VirtualDubModRus 1.5.10.2 (build 2542/release)
Библиотека кодирования           : VirtualDubMod build 2542/release
Видео
Идентификатор                    : 0
Формат                           : MPEG-4 Visual
Профиль формата                  : Advanced Simple@L5
Параметр BVOP формата            : 1
Параметр QPel формата            : Нет
Параметр GMC формата             : Без точки перехода
Параметр матрицы формата         : Default (MPEG)
Идентификатор кодека             : XVID
Идентификатор кодека/Подсказка   : XviD
Продолжительность                : 10 м.
Битрейт                          : 2080 Кбит/сек
Ширина                           : 720 пикс.
Высота                           : 528 пикс.
Соотношение сторон               : 4:3
Частота кадров                   : 25,000 кадр/сек
Цветовое пространство            : YUV
Подвыборка цветности             : 4:2:0
Битовая глубина                  : 8 бит
Тип развёртки                    : Прогрессивная
Метод сжатия                     : С потерями
Бит/(Пиксели*Кадры)              : 0.219
Размер потока                    : 151 Мбайт (82%)
Библиотека кодирования           : XviD 1.2.1 (UTC 2008-12-04)
Аудио
Идентификатор                    : 1
Формат                           : AC-3
Формат/Информация                : Audio Coding 3
Расширение режима                : CM (complete main)
Идентификатор кодека             : 2000
Продолжительность                : 10 м.
Вид битрейта                     : Постоянный
Битрейт                          : 448 Кбит/сек
Канал(ы)                         : 6 канала(ов)
Расположение каналов             : Front: L C R, Side: L R, LFE
Частота                          : 48,0 КГц
Битовая глубина                  : 16 бит
Метод сжатия                     : С потерями
Задержка видео                   : 28 мс.
Размер потока                    : 32,5 Мбайт (18%)
Выравнивание                     : Разделение по промежуткам
Продолжительность промежутка     : 40  мс. (1,00 видеокадр)
Время предзагрузки промежутка    : 500 ms
Скриншоты:
       

Дополнительные скриншоты:

           
Вне форума [Профиль] [ЛС]
Похожие темы
Форум Тема Автор Торрент Отв. Посл. сообщение
./templates/default/images/folder_dl.gif Фильмы 2011-2016 Восхождение Юпитер / Jupiter Ascending (Энди Вачовски / Andy Wachowski, Лана Вачовски / Lana Wachowski) [2015 г., Фантастика, фэнтези, боевик, приключения, WEB-DLRip] Dub [iTunes] Clavik
1 | 0

1 | 2005

94

2016-01-02 08:28
Dracula Последнее
./templates/default/images/folder_dl.gif Зарубежное кино Медведь / The Bear / L\'ours (Жан-Жак Анно / Jean-Jacques Annaud) [1988, Франция, США, драма, приключения, семейный, BDRip 720p] [REMASTERED] VO (Екатеринбург Арт) + Original Fre + Sub (Rus, Ukr, Fre) Omen
1 | 0

1 | 546

3

2015-06-27 17:22
Dracula Последнее
./templates/default/images/folder_dl.gif Обучающее видео Учебный центр 1C | Использование прикладного решения 1С Розница 8.2 Редакция 2 (2015) PCRec Varius
1 | 0

0 | 517

29

2015-07-16 05:16
Varius Последнее
./templates/default/images/folder_dl.gif Зарубежное кино Пит и его дракон / Pete\'s Dragon (Дэвид Лоури / David Lowery) [2016, США, фэнтези, приключения, семейный, BDRip 1080p] Dub + Sub Rus, Eng + Original Eng Omen
1 | 0

0 | 598

4

2016-11-21 01:00
Omen Последнее
./templates/default/images/folder_dl.gif T Новинки (CamRip|TS) Тёмная башня / The Dark Tower (Николай Арсель) [2017, ужасы, фантастика, фэнтези, боевик, приключения, TS] DUB Theseus
1 | 0

0 | 7823

4

2017-08-11 14:05
Theseus Последнее
./templates/default/images/folder_dl.gif Новинки (BD|HDTV|DVD) Меч короля Артура / King Arthur: Legend of the Sword (Гай Ричи) [2017, фэнтези, боевик, драма, приключения, BDRip 720p] DUB | Лицензия Theseus
1 | 0

0 | 6942

1

2017-08-16 20:15
Theseus Последнее
./templates/default/images/folder_dl.gif Новинки (HD|DVD|BD|WEB|TV|SAT|PDTV|-Rip) Чудо-женщина / Wonder Woman (Пэтти Дженкинс) [2017, фантастика, фэнтези, боевик, приключения, WEB-DLRip-AVC] DUB | iTunes Theseus
1 | 0

0 | 39090

3

2017-08-30 20:39
Theseus Последнее
./templates/default/images/folder_dl.gif Новинки (BD|HDTV|DVD) Чудо-женщина / Wonder Woman (Пэтти Дженкинс) [2017, фантастика, фэнтези, боевик, приключения, WEB-DL 1080p] DUB | iTunes Theseus
1 | 0

0 | 46646

2

2017-08-30 20:51
Theseus Последнее
./templates/default/images/folder_dl.gif Новинки (BD|HDTV|DVD) Пираты Карибского моря: Мертвецы не рассказывают сказки / Pirates of the Caribbean: Dead Men Tell No Tales (Хоаким Роннинг, Эспен Сандберг) [2017 г., Фэнтези, боевик, комедия, приключения, BDRip 720p] D | Лицензия Theseus
1 | 0

0 | 5850

1

2017-09-13 16:49
Theseus Последнее
./templates/default/images/folder_dl.gif Новинки (BD|HDTV|DVD) Пираты Карибского моря: Мертвецы не рассказывают сказки / Pirates of the Caribbean: Dead Men Tell No Tales (Хоаким Роннинг, Эспен Сандберг) [2017 г., Фэнтези, боевик, комедия, приключения, BDRemux] DUB Theseus
1 | 0

0 | 5755

1

2017-09-13 17:03
Theseus Последнее
Показать сообщения:    
Ответить на тему

Текущее время: Сегодня 06:23

Часовой пояс: GMT + 3



Вы не можете начинать темы
Вы не можете отвечать на сообщения
Вы не можете редактировать свои сообщения
Вы не можете удалять свои сообщения
Вы не можете голосовать в опросах
Вы не можете прикреплять файлы к сообщениям
Вы не можете скачивать файлы